  0
SECTION
  2
HEADER
  9
$ACADVER
  1
AC1015
  9
$ACADMAINTVER
 70
     6
  9
$DWGCODEPAGE
  3
ANSI_932
  9
$INSBASE
 10
0.0
 20
0.0
 30
0.0
  9
$EXTMIN
 10
-1409.268956750355
 20
-2130.645546587138
 30
0.0
  9
$EXTMAX
 10
3182.382693985346
 20
839.3544534128764
 30
0.0
  9
$LIMMIN
 10
0.0
 20
0.0
  9
$LIMMAX
 10
420.0
 20
297.0
  9
$ORTHOMODE
 70
     1
  9
$REGENMODE
 70
     1
  9
$FILLMODE
 70
     1
  9
$QTEXTMODE
 70
     0
  9
$MIRRTEXT
 70
     0
  9
$LTSCALE
 40
1.0
  9
$ATTMODE
 70
     1
  9
$TEXTSIZE
 40
2.5
  9
$TRACEWID
 40
1.0
  9
$TEXTSTYLE
  7
Standard
  9
$CLAYER
  8
0
  9
$CELTYPE
  6
ByLayer
  9
$CECOLOR
 62
   256
  9
$CELTSCALE
 40
1.0
  9
$DISPSILH
 70
     0
  9
$DIMSCALE
 40
1.0
  9
$DIMASZ
 40
3.5
  9
$DIMEXO
 40
0.625
  9
$DIMDLI
 40
3.75
  9
$DIMRND
 40
0.0
  9
$DIMDLE
 40
0.0
  9
$DIMEXE
 40
2.0
  9
$DIMTP
 40
0.0
  9
$DIMTM
 40
0.0
  9
$DIMTXT
 40
4.0
  9
$DIMCEN
 40
2.5
  9
$DIMTSZ
 40
0.0
  9
$DIMTOL
 70
     0
  9
$DIMLIM
 70
     0
  9
$DIMTIH
 70
     0
  9
$DIMTOH
 70
     0
  9
$DIMSE1
 70
     0
  9
$DIMSE2
 70
     0
  9
$DIMTAD
 70
     1
  9
$DIMZIN
 70
     8
  9
$DIMBLK
  1
OPEN30
  9
$DIMASO
 70
     1
  9
$DIMSHO
 70
     1
  9
$DIMPOST
  1

  9
$DIMAPOST
  1

  9
$DIMALT
 70
     0
  9
$DIMALTD
 70
     3
  9
$DIMALTF
 40
0.03937007874016
  9
$DIMLFAC
 40
1.0
  9
$DIMTOFL
 70
     1
  9
$DIMTVP
 40
0.0
  9
$DIMTIX
 70
     0
  9
$DIMSOXD
 70
     0
  9
$DIMSAH
 70
     0
  9
$DIMBLK1
  1

  9
$DIMBLK2
  1

  9
$DIMSTYLE
  2
ISO-25
  9
$DIMCLRD
 70
     0
  9
$DIMCLRE
 70
     0
  9
$DIMCLRT
 70
   256
  9
$DIMTFAC
 40
1.0
  9
$DIMGAP
 40
1.0
  9
$DIMJUST
 70
     0
  9
$DIMSD1
 70
     0
  9
$DIMSD2
 70
     0
  9
$DIMTOLJ
 70
     0
  9
$DIMTZIN
 70
     8
  9
$DIMALTZ
 70
     0
  9
$DIMALTTZ
 70
     0
  9
$DIMUPT
 70
     0
  9
$DIMDEC
 70
     2
  9
$DIMTDEC
 70
     2
  9
$DIMALTU
 70
     2
  9
$DIMALTTD
 70
     3
  9
$DIMTXSTY
  7
Standard
  9
$DIMAUNIT
 70
     0
  9
$DIMADEC
 70
     1
  9
$DIMALTRND
 40
0.0
  9
$DIMAZIN
 70
     0
  9
$DIMDSEP
 70
    44
  9
$DIMATFIT
 70
     3
  9
$DIMFRAC
 70
     0
  9
$DIMLDRBLK
  1
OPEN30
  9
$DIMLUNIT
 70
     2
  9
$DIMLWD
 70
    -2
  9
$DIMLWE
 70
    -2
  9
$DIMTMOVE
 70
     0
  9
$LUNITS
 70
     2
  9
$LUPREC
 70
     3
  9
$SKETCHINC
 40
1.0
  9
$FILLETRAD
 40
5.0
  9
$AUNITS
 70
     0
  9
$AUPREC
 70
     0
  9
$MENU
  1
.
  9
$ELEVATION
 40
0.0
  9
$PELEVATION
 40
0.0
  9
$THICKNESS
 40
0.0
  9
$LIMCHECK
 70
     0
  9
$CHAMFERA
 40
5.0
  9
$CHAMFERB
 40
5.0
  9
$CHAMFERC
 40
20.0
  9
$CHAMFERD
 40
0.0
  9
$SKPOLY
 70
     0
  9
$TDCREATE
 40
2455023.012359514
  9
$TDUCREATE
 40
2455022.637359514
  9
$TDUPDATE
 40
2459653.383166192
  9
$TDUUPDATE
 40
2459653.008166192
  9
$TDINDWG
 40
0.0695778241
  9
$TDUSRTIMER
 40
0.0008922222
  9
$USRTIMER
 70
     1
  9
$ANGBASE
 50
0.0
  9
$ANGDIR
 70
     0
  9
$PDMODE
 70
     0
  9
$PDSIZE
 40
-5.0
  9
$PLINEWID
 40
0.0
  9
$SPLFRAME
 70
     0
  9
$SPLINETYPE
 70
     6
  9
$SPLINESEGS
 70
     8
  9
$HANDSEED
  5
999
  9
$SURFTAB1
 70
     6
  9
$SURFTAB2
 70
     6
  9
$SURFTYPE
 70
     6
  9
$SURFU
 70
     6
  9
$SURFV
 70
     6
  9
$UCSBASE
  2

  9
$UCSNAME
  2

  9
$UCSORG
 10
0.0
 20
0.0
 30
0.0
  9
$UCSXDIR
 10
1.0
 20
0.0
 30
0.0
  9
$UCSYDIR
 10
0.0
 20
1.0
 30
0.0
  9
$UCSORTHOREF
  2

  9
$UCSORTHOVIEW
 70
     0
  9
$UCSORGTOP
 10
0.0
 20
0.0
 30
0.0
  9
$UCSORGBOTTOM
 10
0.0
 20
0.0
 30
0.0
  9
$UCSORGLEFT
 10
0.0
 20
0.0
 30
0.0
  9
$UCSORGRIGHT
 10
0.0
 20
0.0
 30
0.0
  9
$UCSORGFRONT
 10
0.0
 20
0.0
 30
0.0
  9
$UCSORGBACK
 10
0.0
 20
0.0
 30
0.0
  9
$PUCSBASE
  2

  9
$PUCSNAME
  2

  9
$PUCSORG
 10
0.0
 20
0.0
 30
0.0
  9
$PUCSXDIR
 10
1.0
 20
0.0
 30
0.0
  9
$PUCSYDIR
 10
0.0
 20
1.0
 30
0.0
  9
$PUCSORTHOREF
  2

  9
$PUCSORTHOVIEW
 70
     0
  9
$PUCSORGTOP
 10
0.0
 20
0.0
 30
0.0
  9
$PUCSORGBOTTOM
 10
0.0
 20
0.0
 30
0.0
  9
$PUCSORGLEFT
 10
0.0
 20
0.0
 30
0.0
  9
$PUCSORGRIGHT
 10
0.0
 20
0.0
 30
0.0
  9
$PUCSORGFRONT
 10
0.0
 20
0.0
 30
0.0
  9
$PUCSORGBACK
 10
0.0
 20
0.0
 30
0.0
  9
$USERI1
 70
     0
  9
$USERI2
 70
     0
  9
$USERI3
 70
     0
  9
$USERI4
 70
     0
  9
$USERI5
 70
     0
  9
$USERR1
 40
0.0
  9
$USERR2
 40
0.0
  9
$USERR3
 40
0.0
  9
$USERR4
 40
0.0
  9
$USERR5
 40
0.0
  9
$WORLDVIEW
 70
     1
  9
$SHADEDGE
 70
     3
  9
$SHADEDIF
 70
    70
  9
$TILEMODE
 70
     1
  9
$MAXACTVP
 70
    64
  9
$PINSBASE
 10
0.0
 20
0.0
 30
0.0
  9
$PLIMCHECK
 70
     0
  9
$PEXTMIN
 10
1.000000000000000E+20
 20
1.000000000000000E+20
 30
1.000000000000000E+20
  9
$PEXTMAX
 10
-1.000000000000000E+20
 20
-1.000000000000000E+20
 30
-1.000000000000000E+20
  9
$PLIMMIN
 10
0.0
 20
0.0
  9
$PLIMMAX
 10
0.0
 20
0.0
  9
$UNITMODE
 70
     0
  9
$VISRETAIN
 70
     1
  9
$PLINEGEN
 70
     0
  9
$PSLTSCALE
 70
     1
  9
$TREEDEPTH
 70
  3020
  9
$CMLSTYLE
  2
Standard
  9
$CMLJUST
 70
     0
  9
$CMLSCALE
 40
20.0
  9
$PROXYGRAPHICS
 70
     1
  9
$MEASUREMENT
 70
     1
  9
$CELWEIGHT
370
    -1
  9
$ENDCAPS
280
     0
  9
$JOINSTYLE
280
     0
  9
$LWDISPLAY
290
     0
  9
$INSUNITS
 70
     4
  9
$HYPERLINKBASE
  1

  9
$STYLESHEET
  1

  9
$XEDIT
290
     1
  9
$CEPSNTYPE
380
     0
  9
$PSTYLEMODE
290
     1
  9
$FINGERPRINTGUID
  2
{EC6BB858-51AA-46EC-B484-6C9CC7AB3E2E}
  9
$VERSIONGUID
  2
{FAEB1C32-E019-11D5-929B-00C0DF256EC4}
  9
$EXTNAMES
290
     1
  9
$PSVPSCALE
 40
0.0
  9
$OLESTARTUP
290
     0
  0
ENDSEC
  0
SECTION
  2
CLASSES
  0
CLASS
  1
ACDBDICTIONARYWDFLT
  2
AcDbDictionaryWithDefault
  3
ObjectDBX Classes
 90
        0
280
     0
281
     0
  0
CLASS
  1
VISUALSTYLE
  2
AcDbVisualStyle
  3
ObjectDBX Classes
 90
     4095
280
     0
281
     0
  0
CLASS
  1
TABLESTYLE
  2
AcDbTableStyle
  3
ObjectDBX Classes
 90
     4095
280
     0
281
     0
  0
CLASS
  1
DICTIONARYVAR
  2
AcDbDictionaryVar
  3
ObjectDBX Classes
 90
        0
280
     0
281
     0
  0
CLASS
  1
SCALE
  2
AcDbScale
  3
ObjectDBX Classes
 90
     1153
280
     0
281
     0
  0
CLASS
  1
CELLSTYLEMAP
  2
AcDbCellStyleMap
  3
ObjectDBX Classes
 90
     1152
280
     0
281
     0
  0
CLASS
  1
RASTERVARIABLES
  2
AcDbRasterVariables
  3
ISM
 90
        0
280
     0
281
     0
  0
CLASS
  1
MATERIAL
  2
AcDbMaterial
  3
ObjectDBX Classes
 90
     1153
280
     0
281
     0
  0
CLASS
  1
SUN
  2
AcDbSun
  3
SCENEOE
 90
     1153
280
     0
281
     0
  0
CLASS
  1
ACDBPLACEHOLDER
  2
AcDbPlaceHolder
  3
ObjectDBX Classes
 90
        0
280
     0
281
     0
  0
CLASS
  1
LAYOUT
  2
AcDbLayout
  3
ObjectDBX Classes
 90
        0
280
     0
281
     0
  0
CLASS
  1
MLEADERSTYLE
  2
AcDbMLeaderStyle
  3
ACDB_MLEADERSTYLE_CLASS
 90
     4095
280
     0
281
     0
  0
CLASS
  1
SORTENTSTABLE
  2
AcDbSortentsTable
  3
ObjectDBX Classes
 90
        0
280
     0
281
     0
  0
ENDSEC
  0
SECTION
  2
TABLES
  0
TABLE
  2
VPORT
  5
8
330
0
100
AcDbSymbolTable
 70
     1
  0
VPORT
  5
29
330
8
100
AcDbSymbolTableRecord
100
AcDbViewportTableRecord
  2
*Active
 70
     0
 10
0.0
 20
0.0
 11
1.0
 21
1.0
 12
1597.168492426404
 22
-605.7711331524143
 13
0.0
 23
0.0
 14
10.0
 24
10.0
 15
10.0
 25
10.0
 16
0.0
 26
0.0
 36
1.0
 17
-134.1869158878517
 27
0.0
 37
0.0
 40
3387.606652835588
 41
2.041666666666667
 42
50.0
 43
0.0
 44
0.0
 50
0.0
 51
0.0
 71
    16
 72
  1000
 73
     1
 74
     3
 75
     0
 76
     0
 77
     0
 78
     0
281
     0
 65
     1
110
0.0
120
0.0
130
0.0
111
1.0
121
0.0
131
0.0
112
0.0
122
1.0
132
0.0
 79
     0
146
0.0
  0
ENDTAB
  0
TABLE
  2
LTYPE
  5
5
330
0
100
AcDbSymbolTable
 70
     8
  0
LTYPE
  5
14
330
5
100
AcDbSymbolTableRecord
100
AcDbLinetypeTableRecord
  2
ByBlock
 70
     0
  3

 72
    65
 73
     0
 40
0.0
  0
LTYPE
  5
15
330
5
100
AcDbSymbolTableRecord
100
AcDbLinetypeTableRecord
  2
ByLayer
 70
     0
  3

 72
    65
 73
     0
 40
0.0
  0
LTYPE
  5
16
330
5
100
AcDbSymbolTableRecord
100
AcDbLinetypeTableRecord
  2
Continuous
 70
     0
  3
Solid line
 72
    65
 73
     0
 40
0.0
  0
LTYPE
  5
D3
330
5
100
AcDbSymbolTableRecord
100
AcDbLinetypeTableRecord
  2
CENTER
 70
     0
  3
 Center _____  _  _____  _  _____  _  _____  _ 
 72
    65
 73
     4
 40
50.8
 49
31.75
 74
     0
 49
-6.35
 74
     0
 49
6.35
 74
     0
 49
-6.35
 74
     0
  0
LTYPE
  5
D4
330
5
100
AcDbSymbolTableRecord
100
AcDbLinetypeTableRecord
  2
DASHED
 70
     0
  3
Dashed __  __  __  __  __  __  __  __  __  __  
 72
    65
 73
     2
 40
19.05
 49
12.7
 74
     0
 49
-6.35
 74
     0
  0
LTYPE
  5
37A
330
5
100
AcDbSymbolTableRecord
100
AcDbLinetypeTableRecord
  2
DOTTED
 70
     0
  3
Dotted . . . . . . . . . . . . . . . . . . . . 
 72
    65
 73
     2
 40
6.35
 49
0.0
 74
     0
 49
-6.35
 74
     0
  0
LTYPE
  5
4C4
330
5
100
AcDbSymbolTableRecord
100
AcDbLinetypeTableRecord
  2
PHANTOM
 70
     0
  3
- ･･ - ･･ - ･･ - ･･ 
 72
    65
 73
     6
 40
58.0
 49
30.0
 74
     0
 49
-9.0
 74
     0
 49
2.5
 74
     0
 49
-5.0
 74
     0
 49
2.5
 74
     0
 49
-9.0
 74
     0
  0
LTYPE
  5
4C5
330
5
100
AcDbSymbolTableRecord
100
AcDbLinetypeTableRecord
  2
CENL
 70
     0
  3
(1点鎖線2)------ - ------ - ------ - ------ - -
 72
    65
 73
     4
 40
19.5
 49
15.0
 74
     0
 49
-1.5
 74
     0
 49
1.5
 74
     0
 49
-1.5
 74
     0
  0
LTYPE
  5
4C7
330
5
100
AcDbSymbolTableRecord
100
AcDbLinetypeTableRecord
  2
CENTER1
 70
     0
  3
----- - ----- - ----- - ----- - 
 72
    65
 73
     4
 40
10.0
 49
6.25
 74
     0
 49
-1.25
 74
     0
 49
1.25
 74
     0
 49
-1.25
 74
     0
  0
LTYPE
  5
4C8
330
5
100
AcDbSymbolTableRecord
100
AcDbLinetypeTableRecord
  2
DASHED2
 70
     0
  3
CADPAC LINETYPE
 72
    65
 73
     2
 40
3.423913043478223
 49
2.282608695652158
 74
     0
 49
-1.141304347826065
 74
     0
  0
ENDTAB
  0
TABLE
  2
LAYER
  5
2
102
{ACAD_XDICTIONARY
360
D0
102
}
330
0
100
AcDbSymbolTable
 70
    13
  0
LAYER
  5
10
330
2
100
AcDbSymbolTableRecord
100
AcDbLayerTableRecord
  2
0
 70
     0
 62
     7
  6
Continuous
370
    18
390
F
  0
LAYER
  5
D5
330
2
100
AcDbSymbolTableRecord
100
AcDbLayerTableRecord
  2
jissen
 70
     0
 62
     5
  6
Continuous
370
    13
390
F
1001
AcAecLayerStandard
1000

1000

  0
LAYER
  5
D7
330
2
100
AcDbSymbolTableRecord
100
AcDbLayerTableRecord
  2
hasen
 70
     0
 62
     3
  6
DASHED
370
     5
390
F
1001
AcAecLayerStandard
1000

1000

  0
LAYER
  5
D8
330
2
100
AcDbSymbolTableRecord
100
AcDbLayerTableRecord
  2
sunpo
 70
     0
 62
     4
  6
Continuous
370
     9
390
F
1001
AcAecLayerStandard
1000

1000

  0
LAYER
  5
D9
330
2
100
AcDbSymbolTableRecord
100
AcDbLayerTableRecord
  2
moji
 70
     0
 62
     5
  6
Continuous
370
    -3
390
F
1001
AcAecLayerStandard
1000

1000

  0
LAYER
  5
25D
330
2
100
AcDbSymbolTableRecord
100
AcDbLayerTableRecord
  2
KAKOU
 70
     0
 62
     7
  6
Continuous
370
    -3
390
F
  0
LAYER
  5
4BB
330
2
100
AcDbSymbolTableRecord
100
AcDbLayerTableRecord
  2
Defpoints
 70
     0
 62
     7
  6
Continuous
290
     0
370
    -3
390
F
  0
LAYER
  5
4BC
330
2
100
AcDbSymbolTableRecord
100
AcDbLayerTableRecord
  2
1
 70
     0
 62
     7
  6
Continuous
370
    -3
390
F
  0
LAYER
  5
4BE
330
2
100
AcDbSymbolTableRecord
100
AcDbLayerTableRecord
  2
2
 70
     0
 62
     2
  6
Continuous
370
    -3
390
F
  0
LAYER
  5
4BF
330
2
100
AcDbSymbolTableRecord
100
AcDbLayerTableRecord
  2
CENTER
 70
     0
 62
     1
  6
CENTER
370
    -3
390
F
  0
LAYER
  5
4C1
330
2
100
AcDbSymbolTableRecord
100
AcDbLayerTableRecord
  2
N文字
 70
     0
 62
     3
  6
Continuous
370
    -3
390
F
  0
LAYER
  5
4C2
330
2
100
AcDbSymbolTableRecord
100
AcDbLayerTableRecord
  2
図面枠
 70
     0
 62
     7
  6
Continuous
370
    -3
390
F
  0
LAYER
  5
4C3
330
2
100
AcDbSymbolTableRecord
100
AcDbLayerTableRecord
  2
_-0
 70
     0
 62
     7
  6
Continuous
370
    -3
390
F
  0
ENDTAB
  0
TABLE
  2
STYLE
  5
3
330
0
100
AcDbSymbolTable
 70
     5
  0
STYLE
  5
11
330
3
100
AcDbSymbolTableRecord
100
AcDbTextStyleTableRecord
  2
Standard
 70
     0
 40
0.0
 41
1.0
 50
0.0
 71
     0
 42
2.5
  3
arial.ttf
  4

1001
ACAD
1000
Arial
1071
        0
  0
STYLE
  5
213
330
3
100
AcDbSymbolTableRecord
100
AcDbTextStyleTableRecord
  2
TXT
 70
     0
 40
0.0
 41
1.0
 50
0.0
 71
     0
 42
2.5
  3
TXT.shx
  4

  0
STYLE
  5
261
330
3
100
AcDbSymbolTableRecord
100
AcDbTextStyleTableRecord
  2
KANSIM
 70
     0
 40
0.0
 41
1.0
 50
0.0
 71
     0
 42
2.5
  3
txt
  4

  0
STYLE
  5
4CA
330
3
100
AcDbSymbolTableRecord
100
AcDbTextStyleTableRecord
  2
MS　P明朝
 70
     0
 40
1.0
 41
1.0
 50
0.0
 71
     0
 42
2.5
  3
msmincho.ttc
  4

1001
ACAD
1000
MS Mincho
1071
    32785
  0
STYLE
  5
4D2
330
3
100
AcDbSymbolTableRecord
100
AcDbTextStyleTableRecord
  2
MS　明朝
 70
     0
 40
0.0
 41
1.0
 50
0.0
 71
     0
 42
2.5
  3
msmincho.ttc
  4

1001
ACAD
1000
ＭＳ 明朝
1071
    32785
  0
ENDTAB
  0
TABLE
  2
VIEW
  5
6
330
0
100
AcDbSymbolTable
 70
     0
  0
ENDTAB
  0
TABLE
  2
UCS
  5
7
330
0
100
AcDbSymbolTable
 70
     0
  0
ENDTAB
  0
TABLE
  2
APPID
  5
9
330
0
100
AcDbSymbolTable
 70
     2
  0
APPID
  5
12
330
9
100
AcDbSymbolTableRecord
100
AcDbRegAppTableRecord
  2
ACAD
 70
     0
  0
APPID
  5
D6
330
9
100
AcDbSymbolTableRecord
100
AcDbRegAppTableRecord
  2
AcAecLayerStandard
 70
     0
  0
ENDTAB
  0
TABLE
  2
DIMSTYLE
  5
A
330
0
100
AcDbSymbolTable
 70
     3
100
AcDbDimStyleTable
  0
DIMSTYLE
105
27
330
A
100
AcDbSymbolTableRecord
100
AcDbDimStyleTableRecord
  2
ISO-25
 70
     0
 41
3.5
 42
0.625
 43
3.75
 44
2.0
 73
     0
 74
     0
 77
     1
 78
     8
140
4.0
141
2.5
143
0.03937007874016
147
1.0
171
     3
172
     1
271
     2
178
   256
179
     1
271
     2
272
     2
274
     3
278
    44
283
     0
284
     8
340
11
341
B9
342
B9
  0
DIMSTYLE
105
260
330
A
100
AcDbSymbolTableRecord
100
AcDbDimStyleTableRecord
  2
KANSIM
 70
     0
 41
5.0
178
     0
340
261
  0
DIMSTYLE
105
4C9
102
{ACAD_REACTORS
330
562
330
54A
330
559
330
570
330
536
330
581
330
5BA
330
7B1
330
806
330
591
330
59E
330
5D9
330
62C
330
639
330
820
330
82D
330
845
330
83B
330
851
330
8F0
330
5CC
330
5AD
330
90A
330
919
330
926
330
949
330
937
330
959
330
96A
330
979
330
986
102
}
330
A
100
AcDbSymbolTableRecord
100
AcDbDimStyleTableRecord
  2
ASKSTANDARD2
 70
     0
 40
10.0
 41
2.0
 42
1.5
 43
5.0
 44
1.5
 73
     0
 74
     0
 77
     3
 79
     2
140
2.2
141
0.0
147
0.3
172
     1
176
     4
177
     4
178
     3
179
     2
288
     1
289
     2
340
4CA
341
B9
342
B9
  0
ENDTAB
  0
TABLE
  2
BLOCK_RECORD
  5
1
330
0
100
AcDbSymbolTable
 70
    36
  0
BLOCK_RECORD
  5
1F
102
{ACAD_XDICTIONARY
360
3FD
102
}
330
1
100
AcDbSymbolTableRecord
100
AcDbBlockTableRecord
  2
*Model_Space
340
22
  0
BLOCK_RECORD
  5
1B
330
1
100
AcDbSymbolTableRecord
100
AcDbBlockTableRecord
  2
*Paper_Space
340
1E
  0
BLOCK_RECORD
  5
23
330
1
100
AcDbSymbolTableRecord
100
AcDbBlockTableRecord
  2
*Paper_Space0
340
26
  0
BLOCK_RECORD
  5
B9
330
1
100
AcDbSymbolTableRecord
100
AcDbBlockTableRecord
  2
_OPEN30
340
0
  0
BLOCK_RECORD
  5
4BA
102
{ACAD_XDICTIONARY
360
4D9
102
}
330
1
100
AcDbSymbolTableRecord
100
AcDbBlockTableRecord
  2
A$C451
340
0
102
{BLKREFS
331
997
102
}
  0
BLOCK_RECORD
  5
537
330
1
100
AcDbSymbolTableRecord
100
AcDbBlockTableRecord
  2
*D3
340
0
  0
BLOCK_RECORD
  5
53D
330
1
100
AcDbSymbolTableRecord
100
AcDbBlockTableRecord
  2
_OPEN
340
0
102
{BLKREFS
331
921
331
922
331
96E
331
96F
102
}
  0
BLOCK_RECORD
  5
54B
330
1
100
AcDbSymbolTableRecord
100
AcDbBlockTableRecord
  2
*D5
340
0
  0
BLOCK_RECORD
  5
55A
330
1
100
AcDbSymbolTableRecord
100
AcDbBlockTableRecord
  2
*D6
340
0
  0
BLOCK_RECORD
  5
563
330
1
100
AcDbSymbolTableRecord
100
AcDbBlockTableRecord
  2
*D7
340
0
  0
BLOCK_RECORD
  5
571
330
1
100
AcDbSymbolTableRecord
100
AcDbBlockTableRecord
  2
*D8
340
0
  0
BLOCK_RECORD
  5
582
330
1
100
AcDbSymbolTableRecord
100
AcDbBlockTableRecord
  2
*D9
340
0
  0
BLOCK_RECORD
  5
592
330
1
100
AcDbSymbolTableRecord
100
AcDbBlockTableRecord
  2
*D10
340
0
  0
BLOCK_RECORD
  5
59F
330
1
100
AcDbSymbolTableRecord
100
AcDbBlockTableRecord
  2
*D11
340
0
  0
BLOCK_RECORD
  5
5AE
330
1
100
AcDbSymbolTableRecord
100
AcDbBlockTableRecord
  2
*D12
340
0
  0
BLOCK_RECORD
  5
5BB
330
1
100
AcDbSymbolTableRecord
100
AcDbBlockTableRecord
  2
*D13
340
0
  0
BLOCK_RECORD
  5
5CD
330
1
100
AcDbSymbolTableRecord
100
AcDbBlockTableRecord
  2
*D14
340
0
  0
BLOCK_RECORD
  5
5DA
330
1
100
AcDbSymbolTableRecord
100
AcDbBlockTableRecord
  2
*D15
340
0
  0
BLOCK_RECORD
  5
62D
330
1
100
AcDbSymbolTableRecord
100
AcDbBlockTableRecord
  2
*D16
340
0
  0
BLOCK_RECORD
  5
63A
330
1
100
AcDbSymbolTableRecord
100
AcDbBlockTableRecord
  2
*D17
340
0
  0
BLOCK_RECORD
  5
713
330
1
100
AcDbSymbolTableRecord
100
AcDbBlockTableRecord
  2
BLK42
340
0
102
{BLKREFS
331
712
102
}
  0
BLOCK_RECORD
  5
7B2
330
1
100
AcDbSymbolTableRecord
100
AcDbBlockTableRecord
  2
*D19
340
0
  0
BLOCK_RECORD
  5
807
330
1
100
AcDbSymbolTableRecord
100
AcDbBlockTableRecord
  2
*D20
340
0
  0
BLOCK_RECORD
  5
821
330
1
100
AcDbSymbolTableRecord
100
AcDbBlockTableRecord
  2
*D21
340
0
  0
BLOCK_RECORD
  5
82E
330
1
100
AcDbSymbolTableRecord
100
AcDbBlockTableRecord
  2
*D22
340
0
  0
BLOCK_RECORD
  5
83C
330
1
100
AcDbSymbolTableRecord
100
AcDbBlockTableRecord
  2
*D23
340
0
  0
BLOCK_RECORD
  5
846
330
1
100
AcDbSymbolTableRecord
100
AcDbBlockTableRecord
  2
*D24
340
0
  0
BLOCK_RECORD
  5
852
330
1
100
AcDbSymbolTableRecord
100
AcDbBlockTableRecord
  2
*D25
340
0
  0
BLOCK_RECORD
  5
8F1
330
1
100
AcDbSymbolTableRecord
100
AcDbBlockTableRecord
  2
*D26
340
0
  0
BLOCK_RECORD
  5
90B
330
1
100
AcDbSymbolTableRecord
100
AcDbBlockTableRecord
  2
*D27
340
0
  0
BLOCK_RECORD
  5
91A
330
1
100
AcDbSymbolTableRecord
100
AcDbBlockTableRecord
  2
*D28
340
0
  0
BLOCK_RECORD
  5
927
330
1
100
AcDbSymbolTableRecord
100
AcDbBlockTableRecord
  2
*D29
340
0
  0
BLOCK_RECORD
  5
938
330
1
100
AcDbSymbolTableRecord
100
AcDbBlockTableRecord
  2
*D30
340
0
  0
BLOCK_RECORD
  5
94A
330
1
100
AcDbSymbolTableRecord
100
AcDbBlockTableRecord
  2
*D31
340
0
  0
BLOCK_RECORD
  5
95A
330
1
100
AcDbSymbolTableRecord
100
AcDbBlockTableRecord
  2
*D32
340
0
  0
BLOCK_RECORD
  5
96B
330
1
100
AcDbSymbolTableRecord
100
AcDbBlockTableRecord
  2
*D33
340
0
  0
BLOCK_RECORD
  5
97A
330
1
100
AcDbSymbolTableRecord
100
AcDbBlockTableRecord
  2
*D34
340
0
  0
BLOCK_RECORD
  5
987
330
1
100
AcDbSymbolTableRecord
100
AcDbBlockTableRecord
  2
*D35
340
0
  0
ENDTAB
  0
ENDSEC
  0
SECTION
  2
BLOCKS
  0
BLOCK
  5
20
330
1F
100
AcDbEntity
  8
0
100
AcDbBlockBegin
  2
*Model_Space
 70
     0
 10
0.0
 20
0.0
 30
0.0
  3
*Model_Space
  1
*Model_Space
  0
ENDBLK
  5
21
330
1F
100
AcDbEntity
  8
0
100
AcDbBlockEnd
  0
BLOCK
  5
1C
330
1B
100
AcDbEntity
 67
     1
  8
0
100
AcDbBlockBegin
  2
*Paper_Space
 70
     0
 10
0.0
 20
0.0
 30
0.0
  3
*Paper_Space
  1
*Paper_Space
  0
ENDBLK
  5
1D
330
1B
100
AcDbEntity
 67
     1
  8
0
100
AcDbBlockEnd
  0
BLOCK
  5
24
330
23
100
AcDbEntity
  8
0
100
AcDbBlockBegin
  2
*Paper_Space0
 70
     0
 10
0.0
 20
0.0
 30
0.0
  3
*Paper_Space0
  1
*Paper_Space0
  0
ENDBLK
  5
25
330
23
100
AcDbEntity
  8
0
100
AcDbBlockEnd
  0
BLOCK
  5
198
330
B9
100
AcDbEntity
  8
0
100
AcDbBlockBegin
  2
_OPEN30
 70
     0
 10
0.0
 20
0.0
 30
0.0
  3
_OPEN30
  1
_OPEN30
  0
LINE
  5
19A
330
B9
100
AcDbEntity
  8
0
  6
ByBlock
 62
     0
370
    -2
100
AcDbLine
 10
-1.0
 20
0.267949
 30
0.0
 11
0.0
 21
0.0
 31
0.0
  0
LINE
  5
19B
330
B9
100
AcDbEntity
  8
0
  6
ByBlock
 62
     0
370
    -2
100
AcDbLine
 10
0.0
 20
0.0
 30
0.0
 11
-1.0
 21
-0.267949
 31
0.0
  0
LINE
  5
19C
330
B9
100
AcDbEntity
  8
0
  6
ByBlock
 62
     0
370
    -2
100
AcDbLine
 10
0.0
 20
0.0
 30
0.0
 11
-1.0
 21
0.0
 31
0.0
  0
ENDBLK
  5
19D
330
B9
100
AcDbEntity
  8
0
100
AcDbBlockEnd
  0
BLOCK
  5
993
330
4BA
100
AcDbEntity
  8
0
100
AcDbBlockBegin
  2
A$C451
 70
     0
 10
0.0
 20
0.0
 30
0.0
  3
A$C451
  1

  0
LINE
  5
4DB
102
{ACAD_REACTORS
102
}
330
4BA
100
AcDbEntity
  8
図面枠
  6
Continuous
 62
     6
100
AcDbLine
 10
-1998.572912348016
 20
-2139.561104473425
 30
0.0
 11
2213.427087651984
 21
-2139.561104473425
 31
0.0
  0
LINE
  5
4DC
102
{ACAD_REACTORS
102
}
330
4BA
100
AcDbEntity
  8
図面枠
  6
Continuous
 62
     6
100
AcDbLine
 10
-1998.572912348016
 20
830.4388955265749
 30
0.0
 11
2213.427087651984
 21
830.4388955265749
 31
0.0
  0
TEXT
  5
4DD
102
{ACAD_REACTORS
102
}
330
4BA
100
AcDbEntity
  8
図面枠
  6
Continuous
 62
     3
100
AcDbText
 10
1141.420924714036
 20
779.1388955265808
 30
0.0
 40
37.8
  1
変   更   記   事
  7
MS　明朝
 72
     1
 11
1376.427087651984
 21
798.0388955265807
 31
0.0
100
AcDbText
 73
     2
  0
LINE
  5
4DE
102
{ACAD_REACTORS
102
}
330
4BA
100
AcDbEntity
  8
図面枠
  6
Continuous
 62
     7
100
AcDbLine
 10
755.427087651984
 20
765.638895526572
 30
0.0
 11
2213.427087651984
 21
765.638895526572
 31
0.0
  0
LINE
  5
4DF
102
{ACAD_REACTORS
102
}
330
4BA
100
AcDbEntity
  8
図面枠
  6
Continuous
 62
     7
100
AcDbLine
 10
755.427087651984
 20
700.8388955265691
 30
0.0
 11
2213.427087651984
 21
700.8388955265691
 31
0.0
  0
LINE
  5
4E0
102
{ACAD_REACTORS
102
}
330
4BA
100
AcDbEntity
  8
図面枠
  6
Continuous
 62
     2
100
AcDbLine
 10
971.427087651984
 20
830.4388955265749
 30
0.0
 11
971.427087651984
 21
700.8388955265691
 31
0.0
  0
TEXT
  5
4E1
102
{ACAD_REACTORS
102
}
330
4BA
100
AcDbEntity
  8
図面枠
  6
Continuous
 62
     3
100
AcDbText
 10
764.5801253020078
 20
783.9988955265696
 30
0.0
 40
32.4
  1
符号
  7
MS　明朝
 72
     1
 11
811.9763262306697
 21
800.1988955265697
 31
0.0
100
AcDbText
 73
     2
  0
LINE
  5
4E2
102
{ACAD_REACTORS
102
}
330
4BA
100
AcDbEntity
  8
図面枠
  6
Continuous
 62
     7
100
AcDbLine
 10
755.4270876519913
 20
830.4388955265749
 30
0.0
 11
755.427087651984
 21
700.8388955265691
 31
0.0
  0
LINE
  5
4E3
102
{ACAD_REACTORS
102
}
330
4BA
100
AcDbEntity
  8
図面枠
  6
Continuous
 62
     2
100
AcDbLine
 10
863.427087651984
 20
830.4388955265749
 30
0.0
 11
863.427087651984
 21
700.8388955265691
 31
0.0
  0
LINE
  5
4E4
102
{ACAD_REACTORS
102
}
330
4BA
100
AcDbEntity
  8
図面枠
  6
Continuous
 62
     3
100
AcDbLine
 10
836.427087651984
 20
709.8562096243986
 30
0.0
 11
809.427087651984
 21
756.6215814287425
 31
0.0
  0
LINE
  5
4E5
102
{ACAD_REACTORS
102
}
330
4BA
100
AcDbEntity
  8
図面枠
  6
Continuous
 62
     3
100
AcDbLine
 10
782.427087651984
 20
709.8562096243986
 30
0.0
 11
836.427087651984
 21
709.8562096243986
 31
0.0
  0
LINE
  5
4E6
102
{ACAD_REACTORS
102
}
330
4BA
100
AcDbEntity
  8
図面枠
  6
Continuous
 62
     3
100
AcDbLine
 10
782.427087651984
 20
709.8562096243986
 30
0.0
 11
809.427087651984
 21
756.6215814287425
 31
0.0
  0
TEXT
  5
4E7
102
{ACAD_REACTORS
102
}
330
4BA
100
AcDbEntity
  8
図面枠
  6
Continuous
 62
     3
100
AcDbText
 10
873.9118093871122
 20
783.9988955265696
 30
0.0
 40
32.4
  1
個数
 72
     1
 11
919.153991205294
 21
800.1988955265697
 31
0.0
100
AcDbText
 73
     2
  0
TEXT
  5
4E8
102
{ACAD_REACTORS
102
}
330
4BA
100
AcDbEntity
  8
図面枠
  6
Continuous
 62
     3
100
AcDbText
 10
2064.210958847832
 20
783.9988955265696
 30
0.0
 40
32.4
  1
変更者
  7
MS　明朝
 72
     1
 11
2135.305260240824
 21
800.1988955265697
 31
0.0
100
AcDbText
 73
     2
  0
TEXT
  5
4E9
102
{ACAD_REACTORS
102
}
330
4BA
100
AcDbEntity
  8
図面枠
  6
Continuous
 62
     3
100
AcDbText
 10
1874.376064388304
 20
783.9988955265696
 30
0.0
 40
32.4
  1
日付
  7
MS　明朝
 72
     1
 11
1921.772265316966
 21
800.1988955265697
 31
0.0
100
AcDbText
 73
     2
  0
LINE
  5
4EA
102
{ACAD_REACTORS
102
}
330
4BA
100
AcDbEntity
  8
図面枠
  6
Continuous
 62
     2
100
AcDbLine
 10
1781.427087651984
 20
830.4388955265749
 30
0.0
 11
1781.427087651984
 21
700.8388955265691
 31
0.0
  0
LINE
  5
4EB
102
{ACAD_REACTORS
102
}
330
4BA
100
AcDbEntity
  8
図面枠
  6
Continuous
 62
     2
100
AcDbLine
 10
2051.427087651984
 20
830.4388955265749
 30
0.0
 11
2051.427087651984
 21
700.8388955265691
 31
0.0
  0
LINE
  5
4EC
102
{ACAD_REACTORS
102
}
330
4BA
100
AcDbEntity
  8
図面枠
  6
Continuous
 62
     6
100
AcDbLine
 10
-1998.572912348016
 20
830.4388955265749
 30
0.0
 11
-1998.572912348016
 21
-2139.561104473425
 31
0.0
  0
LINE
  5
4ED
102
{ACAD_REACTORS
102
}
330
4BA
100
AcDbEntity
  8
図面枠
  6
Continuous
 62
     6
100
AcDbLine
 10
2213.427087651984
 20
830.4388955265749
 30
0.0
 11
2213.427087651984
 21
-2139.561104473425
 31
0.0
  0
LINE
  5
4EE
330
4BA
100
AcDbEntity
  8
図面枠
  6
Continuous
 62
     7
100
AcDbLine
 10
1144.227087651987
 20
-1307.961104473419
 30
0.0
 11
2213.427087651984
 21
-1307.961104473419
 31
0.0
  0
LINE
  5
4EF
330
4BA
100
AcDbEntity
  8
図面枠
  6
Continuous
 62
     7
100
AcDbLine
 10
1468.227087651987
 20
-1804.761104473422
 30
0.0
 11
2213.427087651984
 21
-1804.761104473422
 31
0.0
  0
TEXT
  5
4F0
330
4BA
100
AcDbEntity
  8
N文字
 62
     7
100
AcDbText
 10
1647.025067587409
 20
-2026.951474963411
 30
0.0
 40
34.02
  1
第　一　工　業　所
  7
MS　明朝
100
AcDbText
  0
TEXT
  5
4F1
330
4BA
100
AcDbEntity
  8
図面枠
  6
Continuous
 62
     3
100
AcDbText
 10
1637.037478021718
 20
-1516.536104473472
 30
0.0
 40
28.35
  1
材　質
  7
MS　明朝
 72
     1
 11
1699.244991740587
 21
-1502.361104473472
 31
0.0
100
AcDbText
 73
     2
  0
TEXT
  5
4F2
330
4BA
100
AcDbEntity
  8
N文字
 62
     7
100
AcDbText
 10
1481.201829970469
 20
-1790.560184473419
 30
0.0
 40
30.61799999999999
  1
コンベアーカバー(大波)
  7
MS　明朝
100
AcDbText
  0
TEXT
  5
4F3
330
4BA
100
AcDbEntity
  8
N文字
 62
     7
100
AcDbText
 10
1564.477795627226
 20
-1950.982304473422
 30
0.0
 40
34.02
  1
2015.04.11
  7
MS　明朝
100
AcDbText
  0
LINE
  5
4F4
330
4BA
100
AcDbEntity
  8
図面枠
  6
Continuous
 62
     7
100
AcDbLine
 10
1144.227087651987
 20
-2053.161104473431
 30
0.0
 11
2213.427087651984
 21
-2053.161104473431
 31
0.0
  0
LINE
  5
4F5
330
4BA
100
AcDbEntity
  8
図面枠
  6
Continuous
 62
     7
100
AcDbLine
 10
1144.227087651987
 20
-1891.161104473431
 30
0.0
 11
2213.427087651984
 21
-1891.161104473431
 31
0.0
  0
LINE
  5
4F6
330
4BA
100
AcDbEntity
  8
図面枠
  6
Continuous
 62
     7
100
AcDbLine
 10
1144.227087651987
 20
-1966.761104473422
 30
0.0
 11
2213.427087651984
 21
-1966.761104473422
 31
0.0
  0
LINE
  5
4F7
330
4BA
100
AcDbEntity
  8
図面枠
  6
Continuous
 62
     7
100
AcDbLine
 10
1144.227087651987
 20
-1534.761104473422
 30
0.0
 11
2213.427087651984
 21
-1534.761104473422
 31
0.0
  0
LINE
  5
4F8
330
4BA
100
AcDbEntity
  8
図面枠
  6
Continuous
 62
     7
100
AcDbLine
 10
1144.227087651987
 20
-1631.961104473419
 30
0.0
 11
2213.427087651984
 21
-1631.961104473419
 31
0.0
  0
LINE
  5
4F9
330
4BA
100
AcDbEntity
  8
図面枠
  6
Continuous
 62
     7
100
AcDbLine
 10
1144.227087651987
 20
-1718.361104473428
 30
0.0
 11
2213.427087651984
 21
-1718.361104473428
 31
0.0
  0
LINE
  5
4FA
330
4BA
100
AcDbEntity
  8
図面枠
  6
Continuous
 62
     7
100
AcDbLine
 10
1144.227087651987
 20
-1459.161104473431
 30
0.0
 11
2213.427087651984
 21
-1459.161104473431
 31
0.0
  0
LINE
  5
4FB
330
4BA
100
AcDbEntity
  8
図面枠
  6
Continuous
 62
     7
100
AcDbLine
 10
1144.227087651987
 20
-1383.561104473425
 30
0.0
 11
2213.427087651984
 21
-1383.561104473425
 31
0.0
  0
TEXT
  5
4FC
330
4BA
100
AcDbEntity
  8
N文字
 62
     7
100
AcDbText
 10
1179.944080470403
 20
-1361.120996986108
 30
0.0
 40
34.02
  1
2
  7
MS　明朝
100
AcDbText
  0
TEXT
  5
4FD
330
4BA
100
AcDbEntity
  8
N文字
 62
     7
100
AcDbText
 10
1179.944080470395
 20
-1361.120996986065
 30
0.0
 40
34.02
  1
2
  7
MS　明朝
100
AcDbText
  0
TEXT
  5
4FE
330
4BA
100
AcDbEntity
  8
N文字
 62
     7
100
AcDbText
 10
1258.30882376726
 20
-1365.540000549328
 30
0.0
 40
34.02
  1
ﾍﾞﾙﾄｶﾊﾞｰ
  7
MS　明朝
100
AcDbText
  0
TEXT
  5
4FF
330
4BA
100
AcDbEntity
  8
図面枠
  6
Continuous
 62
     3
100
AcDbText
 10
1418.32351255955
 20
-1941.933291757057
 30
0.0
 40
27.0
  1
年月日
  7
MS　明朝
 72
     1
 11
1477.568763720377
 21
-1928.433291757057
 31
0.0
100
AcDbText
 73
     2
  0
TEXT
  5
500
330
4BA
100
AcDbEntity
  8
N文字
 62
     7
100
AcDbText
 10
1440.34260920485
 20
-2029.20329932333
 30
0.0
 40
27.216
  1
株式会社
  7
MS　明朝
100
AcDbText
  0
TEXT
  5
501
330
4BA
100
AcDbEntity
  8
図面枠
  6
Continuous
 62
     3
100
AcDbText
 10
1413.708860551943
 20
-1781.856870847177
 30
0.0
 40
30.23999999999999
  1
名
  7
MS　明朝
 72
     1
 11
1435.827087651985
 21
-1766.736870847177
 31
0.0
100
AcDbText
 73
     2
  0
TEXT
  5
502
330
4BA
100
AcDbEntity
  8
N文字
 62
     7
100
AcDbText
 10
1286.48146820984
 20
-1948.182297093692
 30
0.0
 40
34.02
  1
塚本
  7
MS　明朝
100
AcDbText
  0
TEXT
  5
503
330
4BA
100
AcDbEntity
  8
図面枠
  6
Continuous
 62
     3
100
AcDbText
 10
1413.708860551943
 20
-1854.476535004917
 30
0.0
 40
30.23999999999999
  1
称
  7
MS　明朝
 72
     1
 11
1435.827087651985
 21
-1839.356535004918
 31
0.0
100
AcDbText
 73
     2
  0
TEXT
  5
504
330
4BA
100
AcDbEntity
  8
N文字
 62
     7
100
AcDbText
 10
1286.48146820984
 20
-1871.475123134893
 30
0.0
 40
34.02
  1
野口
  7
MS　明朝
100
AcDbText
  0
LINE
  5
505
330
4BA
100
AcDbEntity
  8
図面枠
  6
Continuous
 62
     3
100
AcDbLine
 10
1468.227087651987
 20
-1718.361104473428
 30
0.0
 11
1468.227087651987
 21
-1891.161104473431
 31
0.0
  0
TEXT
  5
506
330
4BA
100
AcDbEntity
  8
N文字
 62
     7
100
AcDbText
 10
1286.48146820984
 20
-2024.889514080962
 30
0.0
 40
34.02
  1
塚本
  7
MS　明朝
100
AcDbText
  0
LINE
  5
507
330
4BA
100
AcDbEntity
  8
図面枠
  6
Continuous
 62
     3
100
AcDbLine
 10
1383.917519613966
 20
-2080.343886707866
 30
0.0
 11
1349.357519613983
 21
-2086.823886707862
 31
0.0
  0
LINE
  5
508
330
4BA
100
AcDbEntity
  8
図面枠
  6
CENTER
 62
     1
100
AcDbLine
 10
1338.55751961398
 20
-2097.623886707865
 30
0.0
 11
1394.717519613969
 21
-2097.623886707865
 31
0.0
  0
LINE
  5
509
330
4BA
100
AcDbEntity
  8
図面枠
  6
CENL
 62
     1
100
AcDbLine
 10
1335.616301613973
 20
-2097.623886707865
 30
0.0
 11
1283.776301613969
 21
-2097.623886707865
 31
0.0
  0
LINE
  5
50A
330
4BA
100
AcDbEntity
  8
図面枠
  6
Continuous
 62
     3
100
AcDbLine
 10
1349.357519613983
 20
-2108.423886707853
 30
0.0
 11
1383.917519613966
 21
-2114.903886707863
 31
0.0
  0
TEXT
  5
50B
330
4BA
100
AcDbEntity
  8
図面枠
  6
Continuous
 62
     3
100
AcDbText
 10
1413.708860551943
 20
-2133.081104473419
 30
0.0
 40
30.23999999999999
  1
番
  7
MS　明朝
 72
     1
 11
1435.827087651985
 21
-2117.961104473419
 31
0.0
100
AcDbText
 73
     2
  0
LINE
  5
50C
330
4BA
100
AcDbEntity
  8
図面枠
  6
Continuous
 62
     3
100
AcDbLine
 10
1468.227087651987
 20
-2053.161104473431
 30
0.0
 11
1468.227087651987
 21
-2139.561104473425
 31
0.0
  0
LINE
  5
50D
330
4BA
100
AcDbEntity
  8
図面枠
  6
Continuous
 62
     3
100
AcDbLine
 10
1383.917519613966
 20
-2114.903886707863
 30
0.0
 11
1383.917519613966
 21
-2080.343886707866
 31
0.0
  0
TEXT
  5
50E
330
4BA
100
AcDbEntity
  8
図面枠
  6
Continuous
 62
     3
100
AcDbText
 10
1413.708860551943
 20
-2089.881104473422
 30
0.0
 40
30.23999999999999
  1
図
  7
MS　明朝
 72
     1
 11
1435.827087651985
 21
-2074.761104473422
 31
0.0
100
AcDbText
 73
     2
  0
LINE
  5
50F
330
4BA
100
AcDbEntity
  8
図面枠
  6
Continuous
 62
     3
100
AcDbLine
 10
1349.357519613983
 20
-2086.823886707862
 30
0.0
 11
1349.357519613983
 21
-2108.423886707853
 31
0.0
  0
LINE
  5
510
330
4BA
100
AcDbEntity
  8
図面枠
  6
CENL
 62
     1
100
AcDbLine
 10
1309.696301613967
 20
-2071.703886707866
 30
0.0
 11
1309.696301613967
 21
-2123.543886707863
 31
0.0
  0
CIRCLE
  5
511
330
4BA
100
AcDbEntity
  8
図面枠
  6
Continuous
 62
     3
100
AcDbCircle
 10
1309.696301613967
 20
-2097.623886707865
 30
0.0
 40
17.28
  0
CIRCLE
  5
512
330
4BA
100
AcDbEntity
  8
図面枠
  6
Continuous
 62
     3
100
AcDbCircle
 10
1309.696301613967
 20
-2097.623886707865
 30
0.0
 40
10.8
  0
LINE
  5
513
330
4BA
100
AcDbEntity
  8
図面枠
  6
Continuous
 62
     3
100
AcDbLine
 10
1273.827087651985
 20
-2139.561104473425
 30
0.0
 11
1273.827087651985
 21
-1718.361104473428
 31
0.0
  0
LINE
  5
514
330
4BA
100
AcDbEntity
  8
図面枠
  6
Continuous
 62
     7
100
AcDbLine
 10
1403.427087651984
 20
-1718.361104473428
 30
0.0
 11
1403.427087651984
 21
-2139.561104473425
 31
0.0
  0
LINE
  5
515
330
4BA
100
AcDbEntity
  8
図面枠
  6
Continuous
 62
     3
100
AcDbLine
 10
1555.405468192195
 20
-1891.161104473431
 30
0.0
 11
1555.405468192195
 21
-1966.761104473422
 31
0.0
  0
TEXT
  5
516
330
4BA
100
AcDbEntity
  8
図面枠
  6
Continuous
 62
     3
100
AcDbText
 10
1330.763545664461
 20
-1514.83567209735
 30
0.0
 40
28.35
  1
名　　称
  7
MS　明朝
 72
     1
 11
1413.70689728962
 21
-1500.66067209735
 31
0.0
100
AcDbText
 73
     2
  0
LINE
  5
517
330
4BA
100
AcDbEntity
  8
図面枠
  6
Continuous
 62
     3
100
AcDbLine
 10
1559.026611964113
 20
-1459.161104473431
 30
0.0
 11
1559.026611964113
 21
-1534.761104473422
 31
0.0
  0
TEXT
  5
518
330
4BA
100
AcDbEntity
  8
N文字
 62
     7
100
AcDbText
 10
1497.634265998593
 20
-1868.716413859162
 30
0.0
 40
40.82399999999999
  1
BW600（ｶﾏﾎﾞｺ型）
  7
MS　明朝
100
AcDbText
  0
LINE
  5
519
330
4BA
100
AcDbEntity
  8
図面枠
  6
Continuous
 62
     7
100
AcDbLine
 10
1144.227087651972
 20
-1459.161104473431
 30
0.0
 11
1144.227087651987
 21
-2139.56110447344
 31
0.0
  0
TEXT
  5
51A
330
4BA
100
AcDbEntity
  8
図面枠
  6
Continuous
 62
     3
100
AcDbText
 10
1162.281393459691
 20
-1776.633234397382
 30
0.0
 40
30.23999999999999
  1
設計
  7
MS　明朝
 72
     1
 11
1206.517847659776
 21
-1761.513234397382
 31
0.0
100
AcDbText
 73
     2
  0
TEXT
  5
51B
330
4BA
100
AcDbEntity
  8
図面枠
  6
Continuous
 62
     3
100
AcDbText
 10
1162.281393459691
 20
-1943.357462492718
 30
0.0
 40
30.23999999999999
  1
検図
  7
MS　明朝
 72
     1
 11
1206.517847659776
 21
-1928.237462492718
 31
0.0
100
AcDbText
 73
     2
  0
TEXT
  5
51C
330
4BA
100
AcDbEntity
  8
図面枠
  6
Continuous
 62
     3
100
AcDbText
 10
1162.281393459691
 20
-1860.673139286101
 30
0.0
 40
30.23999999999999
  1
製図
  7
MS　明朝
 72
     1
 11
1206.517847659776
 21
-1845.553139286101
 31
0.0
100
AcDbText
 73
     2
  0
TEXT
  5
51D
330
4BA
100
AcDbEntity
  8
図面枠
  6
Continuous
 62
     3
100
AcDbText
 10
1162.281393459691
 20
-2026.041888356039
 30
0.0
 40
30.23999999999999
  1
承認
  7
MS　明朝
 72
     1
 11
1206.517847659776
 21
-2010.921888356039
 31
0.0
100
AcDbText
 73
     2
  0
TEXT
  5
51E
330
4BA
100
AcDbEntity
  8
図面枠
  6
Continuous
 62
     3
100
AcDbText
 10
1140.163166359649
 20
-2112.743886707864
 30
0.0
 40
30.23999999999999
  1
投影法
  7
MS　明朝
 72
     1
 11
1206.517847659776
 21
-2097.623886707865
 31
0.0
100
AcDbText
 73
     2
  0
TEXT
  5
51F
330
4BA
100
AcDbEntity
  8
N文字
 62
     7
100
AcDbText
 10
1179.944080470403
 20
-1443.382304473387
 30
0.0
 40
34.02
  1
1
  7
MS　明朝
100
AcDbText
  0
TEXT
  5
520
330
4BA
100
AcDbEntity
  8
N文字
 62
     7
100
AcDbText
 10
1179.944080470395
 20
-1443.382304473329
 30
0.0
 40
34.02
  1
1
  7
MS　明朝
100
AcDbText
  0
TEXT
  5
521
330
4BA
100
AcDbEntity
  8
図面枠
  6
Continuous
 62
     3
100
AcDbText
 10
1157.403400922744
 20
-1516.536104473472
 30
0.0
 40
28.35
  1
番号
  7
MS　明朝
 72
     1
 11
1198.875076735323
 21
-1502.361104473472
 31
0.0
100
AcDbText
 73
     2
  0
LINE
  5
522
330
4BA
100
AcDbEntity
  8
図面枠
  6
Continuous
 62
     3
100
AcDbLine
 10
1252.227087651987
 20
-1459.161104473431
 30
0.0
 11
1252.227087651987
 21
-1534.761104473422
 31
0.0
  0
TEXT
  5
523
330
4BA
100
AcDbEntity
  8
図面枠
  6
Continuous
 62
     3
100
AcDbText
 10
1150.599753037869
 20
-1690.170688331642
 30
0.0
 40
37.8
  1
工事名称
  7
MS　明朝
 72
     1
 11
1261.19088853808
 21
-1671.270688331642
 31
0.0
100
AcDbText
 73
     2
  0
LINE
  5
524
330
4BA
100
AcDbEntity
  8
図面枠
  6
Continuous
 62
     7
100
AcDbLine
 10
1144.227087651987
 20
-1804.761104473422
 30
0.0
 11
1403.427087651984
 21
-1804.761104473422
 31
0.0
  0
TEXT
  5
525
330
4BA
100
AcDbEntity
  8
図面枠
  6
Continuous
 62
     3
100
AcDbText
 10
1154.016745608028
 20
-1603.409970349187
 30
0.0
 40
37.8
  1
納入先
  7
MS　明朝
 72
     1
 11
1236.960097233186
 21
-1584.509970349187
 31
0.0
100
AcDbText
 73
     2
  0
TEXT
  5
526
330
4BA
100
AcDbEntity
  8
N文字
 62
     7
100
AcDbText
 10
1258.30882376726
 20
-1440.568215012434
 30
0.0
 40
34.02
  1
ﾍﾞﾙﾄｶﾊﾞｰ
  7
MS　明朝
100
AcDbText
  0
LINE
  5
527
330
4BA
100
AcDbEntity
  8
0
370
    20
100
AcDbLine
 10
1144.227087651972
 20
-1459.161104473431
 30
0.0
 11
1144.227087651987
 21
-1307.961104473419
 31
0.0
  0
LINE
  5
528
330
4BA
100
AcDbEntity
  8
0
370
    20
100
AcDbLine
 10
1252.227087651972
 20
-1459.161104473431
 30
0.0
 11
1252.227087651987
 21
-1307.961104473419
 31
0.0
  0
LINE
  5
529
330
4BA
100
AcDbEntity
  8
0
370
    20
100
AcDbLine
 10
1559.026611964113
 20
-1459.161104473431
 30
0.0
 11
1559.02661196412
 21
-1307.961104473419
 31
0.0
  0
TEXT
  5
52A
330
4BA
100
AcDbEntity
  8
N文字
 62
     7
100
AcDbText
 10
1986.540325219128
 20
-1367.782304473425
 30
0.0
 40
34.02
  1
点検窓付
  7
MS　明朝
100
AcDbText
  0
TEXT
  5
52B
330
4BA
100
AcDbEntity
  8
図面枠
  6
Continuous
 62
     3
100
AcDbText
 10
2012.360995644537
 20
-1516.536104473472
 30
0.0
 40
28.35
  1
備　考
  7
MS　明朝
 72
     1
 11
2074.568509363406
 21
-1502.361104473472
 31
0.0
100
AcDbText
 73
     2
  0
TEXT
  5
52C
330
4BA
100
AcDbEntity
  8
図面枠
  6
Continuous
 62
     3
100
AcDbText
 10
1833.197721086354
 20
-1941.933291757057
 30
0.0
 40
27.0
  1
 尺度
  7
MS　明朝
 72
     1
 11
1882.568763720377
 21
-1928.433291757057
 31
0.0
100
AcDbText
 73
     2
  0
LINE
  5
52D
330
4BA
100
AcDbEntity
  8
図面枠
  6
Continuous
 62
     7
100
AcDbLine
 10
1808.427087651984
 20
-1891.161104473431
 30
0.0
 11
1808.427087651984
 21
-1966.761104473422
 31
0.0
  0
LINE
  5
52E
330
4BA
100
AcDbEntity
  8
図面枠
  6
Continuous
 62
     3
100
AcDbLine
 10
1965.016825645671
 20
-1891.161104473431
 30
0.0
 11
1965.016825645671
 21
-1966.761104473422
 31
0.0
  0
LINE
  5
52F
330
4BA
100
AcDbEntity
  8
図面枠
  6
Continuous
 62
     3
100
AcDbLine
 10
1946.521555504853
 20
-1459.161104473431
 30
0.0
 11
1946.521555504845
 21
-1534.761104473422
 31
0.0
  0
LINE
  5
530
330
4BA
100
AcDbEntity
  8
図面枠
  6
Continuous
 62
     3
100
AcDbLine
 10
1842.102677734478
 20
-1459.161104473431
 30
0.0
 11
1842.102677734478
 21
-1534.761104473422
 31
0.0
  0
TEXT
  5
531
330
4BA
100
AcDbEntity
  8
図面枠
  6
Continuous
 62
     3
100
AcDbText
 10
1853.708051983402
 20
-1516.536104473472
 30
0.0
 40
28.35
  1
数量
  7
MS　明朝
 72
     1
 11
1895.179727795981
 21
-1502.361104473472
 31
0.0
100
AcDbText
 73
     2
  0
TEXT
  5
532
330
4BA
100
AcDbEntity
  8
N文字
 62
     7
100
AcDbText
 10
1999.271206203539
 20
-1440.267199926529
 30
0.0
 40
34.02
  1
固定式
  7
MS　明朝
100
AcDbText
  0
TEXT
  5
533
330
4BA
100
AcDbEntity
  8
N文字
 62
     7
100
AcDbText
 10
1973.598159454163
 20
-1947.123135910137
 30
0.0
 40
34.02
  1
1/10
  7
MS　明朝
100
AcDbText
  0
LINE
  5
534
330
4BA
100
AcDbEntity
  8
0
370
    20
100
AcDbLine
 10
1842.102677734478
 20
-1459.161104473431
 30
0.0
 11
1842.10267773447
 21
-1307.961104473419
 31
0.0
  0
LINE
  5
535
330
4BA
100
AcDbEntity
  8
0
370
    20
100
AcDbLine
 10
1946.521555504853
 20
-1459.161104473431
 30
0.0
 11
1946.521555504853
 21
-1307.961104473419
 31
0.0
  0
DIMENSION
  5
536
330
4BA
100
AcDbEntity
  8
0
370
    20
100
AcDbDimension
  2
*D3
 10
-571.9668962851465
 20
-274.1253414081148
 30
0.0
 11
-613.9668962851465
 21
10.87465859188524
 31
0.0
 70
    32
 71
     5
 42
570.0
  3
ASKSTANDARD2
100
AcDbAlignedDimension
 13
-1275.655162061932
 23
295.8746585918852
 33
0.0
 14
-643.4572374373856
 24
-274.1253414081148
 34
0.0
 50
90.0
100
AcDbRotatedDimension
1001
ACAD
1000
DSTYLE
1002
{
1070
    40
1040
20.0
1070
    77
1070
     1
1070
    78
1070
     8
1070
   147
1040
1.0
1070
   176
1070
     7
1070
   177
1070
     7
1070
   178
1070
     7
1070
   179
1070
     1
1070
   271
1070
     1
1070
   272
1070
     1
1070
   288
1070
     0
1070
   289
1070
     3
1070
   340
1005
4D2
1070
   341
1005
53D
1070
   342
1005
53D
1002
}
  0
TEXT
  5
549
330
4BA
100
AcDbEntity
  8
N文字
 62
     7
100
AcDbText
 10
-1663.337888227088
 20
-2021.938513913003
 30
0.0
 40
54.432
  1
元板長＝1219mm×1727mm×0.6mm　9.9kg/枚
  7
MS　明朝
100
AcDbText
  0
DIMENSION
  5
54A
330
4BA
100
AcDbEntity
  8
0
370
    20
100
AcDbDimension
  2
*D5
 10
-800.6551620619393
 20
-445.348857506644
 30
0.0
 11
-1275.655162061932
 21
-403.348857506644
 31
0.0
 70
    32
 71
     5
 42
949.9999999999854
  3
ASKSTANDARD2
100
AcDbAlignedDimension
 13
-1750.655162061925
 23
-274.1253414081002
 33
0.0
 14
-800.6551620619393
 24
-274.1253414081002
 34
0.0
100
AcDbRotatedDimension
1001
ACAD
1000
DSTYLE
1002
{
1070
    40
1040
20.0
1070
    77
1070
     1
1070
    78
1070
     8
1070
   147
1040
1.0
1070
   176
1070
     7
1070
   177
1070
     7
1070
   178
1070
     7
1070
   179
1070
     1
1070
   271
1070
     1
1070
   272
1070
     1
1070
   288
1070
     0
1070
   289
1070
     3
1070
   340
1005
4D2
1070
   341
1005
53D
1070
   342
1005
53D
1002
}
  0
ARC
  5
557
330
4BA
100
AcDbEntity
  8
0
370
    20
100
AcDbCircle
 10
-1200.655162061932
 20
-114.7388510637829
 30
0.0
 40
400.0
100
AcDbArc
 50
0.0
 51
73.87237978683929
  0
LINE
  5
558
330
4BA
100
AcDbEntity
  8
0
  6
CENTER
 62
     4
370
    20
100
AcDbLine
 10
-1840.215098644654
 20
-114.7388510637829
 30
0.0
 11
-709.8342237254146
 21
-114.7388510637829
 31
0.0
  0
DIMENSION
  5
559
330
4BA
100
AcDbEntity
  8
0
370
    20
100
AcDbDimension
  2
*D6
 10
-1350.655162062034
 20
-114.7388510638957
 30
0.0
 11
-1465.380801069818
 21
11.34379827746402
 31
0.0
 70
   164
 71
     5
 42
400.0000000000147
  3
ASKSTANDARD2
100
AcDbRadialDimension
 15
-1619.859211626605
 25
181.114456671623
 35
0.0
 40
0.0
1001
ACAD
1000
DSTYLE
1002
{
1070
    40
1040
20.0
1070
    77
1070
     1
1070
    78
1070
     8
1070
   147
1040
1.0
1070
   176
1070
     7
1070
   177
1070
     7
1070
   178
1070
     7
1070
   179
1070
     1
1070
   271
1070
     1
1070
   272
1070
     1
1070
   289
1070
     3
1070
   340
1005
4D2
1070
   341
1005
53D
1070
   342
1005
53D
1002
}
  0
DIMENSION
  5
562
330
4BA
100
AcDbEntity
  8
0
370
    20
100
AcDbDimension
  2
*D7
 10
-1275.65516206191
 20
-374.1253414081148
 30
0.0
 11
-1337.696709542424
 21
77.3278236233583
 31
0.0
 70
   164
 71
     5
 42
670.0000000000149
  3
ASKSTANDARD2
100
AcDbRadialDimension
 15
-1366.873451990072
 25
289.6360792714859
 35
0.0
 40
0.0
1001
ACAD
1000
DSTYLE
1002
{
1070
    40
1040
20.0
1070
    77
1070
     1
1070
    78
1070
     8
1070
   147
1040
1.0
1070
   176
1070
     7
1070
   177
1070
     7
1070
   178
1070
     7
1070
   179
1070
     1
1070
   271
1070
     1
1070
   272
1070
     1
1070
   289
1070
     3
1070
   340
1005
4D2
1070
   341
1005
53D
1070
   342
1005
53D
1002
}
  0
ARC
  5
56B
330
4BA
100
AcDbEntity
  8
0
370
    20
100
AcDbCircle
 10
-1350.655162061932
 20
-114.7388510637829
 30
0.0
 40
400.0
100
AcDbArc
 50
106.1276202131607
 51
180.0
  0
LINE
  5
56C
330
4BA
100
AcDbEntity
  8
0
  6
CENTER
 62
     4
370
    20
100
AcDbLine
 10
-1275.655162061932
 20
-304.8699528880097
 30
0.0
 11
-1275.655162061932
 21
435.4641004219447
 31
0.0
  0
LINE
  5
56D
330
4BA
100
AcDbEntity
  8
0
370
    20
100
AcDbLine
 10
-1750.655162061925
 20
-274.1253414081002
 30
0.0
 11
-1768.655162061939
 21
-274.1253414081075
 31
0.0
  0
LINE
  5
56E
330
4BA
100
AcDbEntity
  8
0
370
    20
100
AcDbLine
 10
-1768.655162061939
 20
-274.1253414081148
 30
0.0
 11
-1768.655162061939
 21
-114.7388510637829
 31
0.0
  0
LINE
  5
56F
330
4BA
100
AcDbEntity
  8
0
370
    20
100
AcDbLine
 10
-1750.655162061932
 20
-274.1253414081148
 30
0.0
 11
-1750.655162061932
 21
-114.7388510637829
 31
0.0
  0
DIMENSION
  5
570
330
4BA
100
AcDbEntity
  8
0
370
    20
100
AcDbDimension
  2
*D8
 10
-673.4572374373856
 20
-114.7388510637829
 30
0.0
 11
-715.4572374373856
 21
20.93230257191271
 31
0.0
 70
    32
 71
     5
 42
159.3864903443318
  3
ASKSTANDARD2
100
AcDbAlignedDimension
 13
-782.6551620619248
 23
-274.1253414081148
 33
0.0
 14
-736.505800962932
 24
-114.7388510637829
 34
0.0
 50
90.0
100
AcDbRotatedDimension
1001
ACAD
1000
DSTYLE
1002
{
1070
    40
1040
20.0
1070
    77
1070
     1
1070
    78
1070
     8
1070
   147
1040
1.0
1070
   176
1070
     7
1070
   177
1070
     7
1070
   178
1070
     7
1070
   179
1070
     1
1070
   271
1070
     1
1070
   272
1070
     1
1070
   288
1070
     0
1070
   289
1070
     3
1070
   340
1005
4D2
1070
   341
1005
53D
1070
   342
1005
53D
1002
}
  0
LINE
  5
57E
330
4BA
100
AcDbEntity
  8
0
370
    20
100
AcDbLine
 10
-800.6551620619393
 20
-274.1253414081002
 30
0.0
 11
-782.6551620619248
 21
-274.1253414081075
 31
0.0
  0
LINE
  5
57F
330
4BA
100
AcDbEntity
  8
0
370
    20
100
AcDbLine
 10
-782.6551620619248
 20
-274.1253414081148
 30
0.0
 11
-782.6551620619248
 21
-114.7388510637829
 31
0.0
  0
LINE
  5
580
330
4BA
100
AcDbEntity
  8
0
370
    20
100
AcDbLine
 10
-800.6551620619321
 20
-274.1253414081148
 30
0.0
 11
-800.6551620619321
 21
-114.7388510637829
 31
0.0
  0
DIMENSION
  5
581
330
4BA
100
AcDbEntity
  8
0
370
    20
100
AcDbDimension
  2
*D9
 10
769.1500000000124
 20
510.9119160517439
 30
0.0
 11
269.1500000000124
 21
560.7061408379484
 31
0.0
 70
    32
  1
有効長<>%%p5
 71
     5
 42
1000.0
  3
ASKSTANDARD2
100
AcDbAlignedDimension
 13
-230.8499999999876
 23
296.329700700473
 33
0.0
 14
769.1500000000124
 24
296.329700700473
 34
0.0
100
AcDbRotatedDimension
1001
ACAD
1000
DSTYLE
1002
{
1070
    40
1040
20.0
1070
    77
1070
     1
1070
    78
1070
     8
1070
   147
1040
1.0
1070
   176
1070
     7
1070
   177
1070
     7
1070
   178
1070
     7
1070
   179
1070
     1
1070
   271
1070
     1
1070
   272
1070
     1
1070
   288
1070
     0
1070
   289
1070
     3
1070
   340
1005
4D2
1070
   341
1005
53D
1070
   342
1005
53D
1002
}
  0
ARC
  5
58E
330
4BA
100
AcDbEntity
  8
0
370
    20
100
AcDbCircle
 10
757.8979723200864
 20
-938.2292287536111
 30
0.0
 40
24.5
100
AcDbArc
 50
46.10171856872449
 51
133.8982814312755
  0
LINE
  5
58F
330
4BA
100
AcDbEntity
  8
0
  6
CENTER
 62
     4
370
    20
100
AcDbLine
 10
-306.6172136738933
 20
-1342.342738409272
 30
0.0
 11
915.4544689383001
 21
-1342.342738409272
 31
0.0
  0
LINE
  5
590
330
4BA
100
AcDbEntity
  8
0
370
    20
100
AcDbLine
 10
-253.5020276799223
 20
-1501.729228753611
 30
0.0
 11
846.4979723200777
 21
-1501.729228753611
 31
0.0
  0
DIMENSION
  5
591
330
4BA
100
AcDbEntity
  8
0
370
    20
100
AcDbDimension
  2
*D10
 10
796.4979723200777
 20
-671.3994134801469
 30
0.0
 11
296.4979723200777
 21
-621.6051886939424
 31
0.0
 70
    32
  1
有効長<>%%p5
 71
     5
 42
1000.0
  3
ASKSTANDARD2
100
AcDbAlignedDimension
 13
-203.5020276799223
 23
-931.2741866450233
 33
0.0
 14
796.4979723200777
 24
-931.2741866450233
 34
0.0
100
AcDbRotatedDimension
1001
ACAD
1000
DSTYLE
1002
{
1070
    40
1040
20.0
1070
    77
1070
     1
1070
    78
1070
     8
1070
   147
1040
1.0
1070
   176
1070
     7
1070
   177
1070
     7
1070
   178
1070
     7
1070
   179
1070
     1
1070
   271
1070
     1
1070
   272
1070
     1
1070
   288
1070
     0
1070
   289
1070
     3
1070
   340
1005
4D2
1070
   341
1005
53D
1070
   342
1005
53D
1002
}
  0
DIMENSION
  5
59E
330
4BA
100
AcDbEntity
  8
0
370
    20
100
AcDbDimension
  2
*D11
 10
846.4979723200631
 20
-671.3994134801469
 30
0.0
 11
975.1533824790613
 21
-629.3994134801469
 31
0.0
 70
    32
 71
     5
 42
49.99999999998545
  3
ASKSTANDARD2
100
AcDbAlignedDimension
 13
796.4979723200777
 23
-931.2741866450233
 33
0.0
 14
846.4979723200631
 24
-920.2100722805626
 34
0.0
100
AcDbRotatedDimension
1001
ACAD
1000
DSTYLE
1002
{
1070
    40
1040
20.0
1070
    77
1070
     1
1070
    78
1070
     8
1070
   147
1040
1.0
1070
   176
1070
     7
1070
   177
1070
     7
1070
   178
1070
     7
1070
   179
1070
     1
1070
   271
1070
     1
1070
   272
1070
     1
1070
   288
1070
     0
1070
   289
1070
     3
1070
   340
1005
4D2
1070
   341
1005
53D
1070
   342
1005
53D
1002
}
  0
DIMENSION
  5
5AD
330
4BA
100
AcDbEntity
  8
0
370
    20
100
AcDbDimension
  2
*D12
 10
846.4979723200777
 20
-1659.282180732989
 30
0.0
 11
296.4979723200777
 21
-1616.402359586389
 31
0.0
 70
    32
  1
<>　%%p5
 71
     5
 42
1100.0
  3
ASKSTANDARD2
100
AcDbAlignedDimension
 13
-253.5020276799223
 23
-1501.729228753611
 33
0.0
 14
846.4979723200777
 24
-1501.729228753611
 34
0.0
100
AcDbRotatedDimension
1001
ACAD
1000
DSTYLE
1002
{
1070
    40
1040
20.0
1070
    77
1070
     1
1070
    78
1070
     8
1070
   147
1040
1.0
1070
   176
1070
     7
1070
   177
1070
     7
1070
   178
1070
     7
1070
   179
1070
     1
1070
   271
1070
     1
1070
   272
1070
     1
1070
   288
1070
     0
1070
   289
1070
     3
1070
   340
1005
4D2
1070
   341
1005
53D
1070
   342
1005
53D
1002
}
  0
DIMENSION
  5
5BA
330
4BA
100
AcDbEntity
  8
0
370
    20
100
AcDbDimension
  2
*D13
 10
819.1499999999978
 20
510.9119160517439
 30
0.0
 11
947.805410158996
 21
552.9119160517439
 31
0.0
 70
    32
 71
     5
 42
49.99999999998545
  3
ASKSTANDARD2
100
AcDbAlignedDimension
 13
769.1500000000124
 23
296.329700700473
 33
0.0
 14
819.1499999999978
 24
307.3938150649337
 34
0.0
100
AcDbRotatedDimension
1001
ACAD
1000
DSTYLE
1002
{
1070
    40
1040
20.0
1070
    77
1070
     1
1070
    78
1070
     8
1070
   147
1040
1.0
1070
   176
1070
     7
1070
   177
1070
     7
1070
   178
1070
     7
1070
   179
1070
     1
1070
   271
1070
     1
1070
   272
1070
     1
1070
   288
1070
     0
1070
   289
1070
     3
1070
   340
1005
4D2
1070
   341
1005
53D
1070
   342
1005
53D
1002
}
  0
ARC
  5
5C9
330
4BA
100
AcDbEntity
  8
0
370
    20
100
AcDbCircle
 10
769.0000000000182
 20
320.3771587194497
 30
0.0
 40
24.5
100
AcDbArc
 50
226.1017185687245
 51
313.8982814312755
  0
LINE
  5
5CA
330
4BA
100
AcDbEntity
  8
0
  6
CENTER
 62
     4
370
    20
100
AcDbLine
 10
-333.9651859939659
 20
-114.1253414081148
 30
0.0
 11
888.1064966182275
 21
-114.1253414081148
 31
0.0
  0
LINE
  5
5CB
330
4BA
100
AcDbEntity
  8
0
370
    20
100
AcDbLine
 10
-280.8499999999949
 20
-274.1253414081148
 30
0.0
 11
819.1500000000051
 21
-274.1253414081148
 31
0.0
  0
DIMENSION
  5
5CC
330
4BA
100
AcDbEntity
  8
0
370
    20
100
AcDbDimension
  2
*D14
 10
819.1500000000051
 20
-411.4368103646557
 30
0.0
 11
269.1500000000051
 21
-368.5569892180553
 31
0.0
 70
    32
  1
<>　%%p5
 71
     5
 42
1100.0
  3
ASKSTANDARD2
100
AcDbAlignedDimension
 13
-280.8499999999949
 23
-274.1253414081148
 33
0.0
 14
819.1500000000051
 24
-274.1253414081148
 34
0.0
100
AcDbRotatedDimension
1001
ACAD
1000
DSTYLE
1002
{
1070
    40
1040
20.0
1070
    77
1070
     1
1070
    78
1070
     8
1070
   147
1040
1.0
1070
   176
1070
     7
1070
   177
1070
     7
1070
   178
1070
     7
1070
   179
1070
     1
1070
   271
1070
     1
1070
   272
1070
     1
1070
   288
1070
     0
1070
   289
1070
     3
1070
   340
1005
4D2
1070
   341
1005
53D
1070
   342
1005
53D
1002
}
  0
DIMENSION
  5
5D9
330
4BA
100
AcDbEntity
  8
0
370
    20
100
AcDbDimension
  2
*D15
 10
-253.5020276799223
 20
-671.3994134801469
 30
0.0
 11
-382.1574378389205
 21
-629.3994134801469
 31
0.0
 70
    32
 71
     5
 42
50.0
  3
ASKSTANDARD2
100
AcDbAlignedDimension
 13
-203.5020276799223
 23
-931.2741866450233
 33
0.0
 14
-253.5020276799223
 24
-920.2100722805772
 34
0.0
100
AcDbRotatedDimension
1001
ACAD
1000
DSTYLE
1002
{
1070
    40
1040
20.0
1070
    77
1070
     1
1070
    78
1070
     8
1070
   147
1040
1.0
1070
   176
1070
     7
1070
   177
1070
     7
1070
   178
1070
     7
1070
   179
1070
     1
1070
   271
1070
     1
1070
   272
1070
     1
1070
   288
1070
     0
1070
   289
1070
     3
1070
   340
1005
4D2
1070
   341
1005
53D
1070
   342
1005
53D
1002
}
  0
ARC
  5
5E8
330
4BA
100
AcDbEntity
  8
0
370
    20
100
AcDbCircle
 10
-203.3520276799281
 20
-907.2267286260467
 30
0.0
 40
24.5
100
AcDbArc
 50
226.1017185687245
 51
313.8982814312755
  0
ARC
  5
5E9
330
4BA
100
AcDbEntity
  8
0
370
    20
100
AcDbCircle
 10
-241.8020276799252
 20
-938.2292287536111
 30
0.0
 40
24.5
100
AcDbArc
 50
46.10171856872449
 51
118.5255770801936
  0
LINE
  5
5EA
330
4BA
100
AcDbEntity
  8
0
370
    20
100
AcDbLine
 10
-224.8142124058977
 20
-920.5752169654879
 30
0.0
 11
-220.3398429539557
 21
-924.8807404141698
 31
0.0
  0
LINE
  5
5EB
330
4BA
100
AcDbEntity
  8
_-0
  6
Continuous
100
AcDbLine
 10
-203.3520276799281
 20
-1501.525241184529
 30
0.0
 11
-203.3520276799281
 21
-953.3927151435782
 31
0.0
  0
LINE
  5
5EC
330
4BA
100
AcDbEntity
  8
_-0
  6
Continuous
100
AcDbLine
 10
-253.5020276799223
 20
-916.7034302782849
 30
0.0
 11
-253.5020276799223
 21
-1501.729228753611
 31
0.0
  0
ARC
  5
5ED
330
4BA
100
AcDbEntity
  8
0
370
    20
100
AcDbCircle
 10
604.0979723200835
 20
-938.2292287536111
 30
0.0
 40
24.5
100
AcDbArc
 50
46.10171856872449
 51
133.8982814312755
  0
LINE
  5
5EE
330
4BA
100
AcDbEntity
  8
0
370
    20
100
AcDbLine
 10
433.3101570460531
 20
-920.5752169654734
 30
0.0
 11
428.835787594111
 21
-924.8807404141698
 31
0.0
  0
LINE
  5
5EF
330
4BA
100
AcDbEntity
  8
0
370
    20
100
AcDbLine
 10
390.3857875941139
 20
-920.5752169654879
 30
0.0
 11
394.860157046056
 21
-924.8807404141698
 31
0.0
  0
LINE
  5
5F0
330
4BA
100
AcDbEntity
  8
0
370
    20
100
AcDbLine
 10
356.4101570460443
 20
-920.5752169654879
 30
0.0
 11
351.9357875941023
 21
-924.8807404141698
 31
0.0
  0
ARC
  5
5F1
330
4BA
100
AcDbEntity
  8
0
370
    20
100
AcDbCircle
 10
373.3979723200719
 20
-938.2292287536111
 30
0.0
 40
24.5
100
AcDbArc
 50
46.10171856872449
 51
133.8982814312755
  0
ARC
  5
5F2
330
4BA
100
AcDbEntity
  8
0
370
    20
100
AcDbCircle
 10
411.8479723200835
 20
-907.2267286260467
 30
0.0
 40
24.5
100
AcDbArc
 50
226.1017185687245
 51
313.8982814312755
  0
LINE
  5
5F3
330
4BA
100
AcDbEntity
  8
0
370
    20
100
AcDbLine
 10
587.110157046056
 20
-920.5752169654734
 30
0.0
 11
582.6357875941139
 21
-924.8807404141698
 31
0.0
  0
LINE
  5
5F4
330
4BA
100
AcDbEntity
  8
0
370
    20
100
AcDbLine
 10
544.1857875941168
 20
-920.5752169654879
 30
0.0
 11
548.6601570460443
 21
-924.8807404141698
 31
0.0
  0
LINE
  5
5F5
330
4BA
100
AcDbEntity
  8
0
370
    20
100
AcDbLine
 10
510.2101570460472
 20
-920.5752169654879
 30
0.0
 11
505.7357875941052
 21
-924.8807404141698
 31
0.0
  0
LINE
  5
5F6
330
4BA
100
AcDbEntity
  8
0
370
    20
100
AcDbLine
 10
467.2857875941081
 20
-920.5752169654734
 30
0.0
 11
471.7601570460502
 21
-924.8807404141698
 31
0.0
  0
ARC
  5
5F7
330
4BA
100
AcDbEntity
  8
0
370
    20
100
AcDbCircle
 10
488.7479723200777
 20
-907.2267286260467
 30
0.0
 40
24.5
100
AcDbArc
 50
226.1017185687245
 51
313.8982814312755
  0
ARC
  5
5F8
330
4BA
100
AcDbEntity
  8
0
370
    20
100
AcDbCircle
 10
565.6479723200864
 20
-907.2267286260467
 30
0.0
 40
24.5
100
AcDbArc
 50
226.1017185687245
 51
313.8982814312755
  0
ARC
  5
5F9
330
4BA
100
AcDbEntity
  8
0
370
    20
100
AcDbCircle
 10
527.1979723200748
 20
-938.2292287536111
 30
0.0
 40
24.5
100
AcDbArc
 50
46.10171856872449
 51
133.8982814312755
  0
ARC
  5
5FA
330
4BA
100
AcDbEntity
  8
0
370
    20
100
AcDbCircle
 10
450.2979723200806
 20
-938.2292287536111
 30
0.0
 40
24.5
100
AcDbArc
 50
46.10171856872449
 51
133.8982814312755
  0
LINE
  5
5FB
330
4BA
100
AcDbEntity
  8
0
370
    20
100
AcDbLine
 10
697.9857875941052
 20
-920.5752169654879
 30
0.0
 11
702.4601570460472
 21
-924.8807404141698
 31
0.0
  0
ARC
  5
5FC
330
4BA
100
AcDbEntity
  8
0
370
    20
100
AcDbCircle
 10
719.4479723200748
 20
-907.2267286260467
 30
0.0
 40
24.5
100
AcDbArc
 50
226.1017185687245
 51
313.8982814312755
  0
LINE
  5
5FD
330
4BA
100
AcDbEntity
  8
0
370
    20
100
AcDbLine
 10
740.9101570460443
 20
-920.5752169654734
 30
0.0
 11
736.4357875941168
 21
-924.8807404141698
 31
0.0
  0
ARC
  5
5FE
330
4BA
100
AcDbEntity
  8
0
370
    20
100
AcDbCircle
 10
642.5479723200806
 20
-907.2267286260467
 30
0.0
 40
24.5
100
AcDbArc
 50
226.1017185687245
 51
313.8982814312755
  0
LINE
  5
5FF
330
4BA
100
AcDbEntity
  8
0
370
    20
100
AcDbLine
 10
664.0101570460502
 20
-920.5752169654879
 30
0.0
 11
659.5357875941081
 21
-924.8807404141698
 31
0.0
  0
LINE
  5
600
330
4BA
100
AcDbEntity
  8
0
370
    20
100
AcDbLine
 10
621.085787594111
 20
-920.5752169654734
 30
0.0
 11
625.5601570460531
 21
-924.8807404141698
 31
0.0
  0
ARC
  5
601
330
4BA
100
AcDbEntity
  8
0
370
    20
100
AcDbCircle
 10
680.9979723200777
 20
-938.2292287536111
 30
0.0
 40
24.5
100
AcDbArc
 50
46.10171856872449
 51
133.8982814312755
  0
LINE
  5
602
330
4BA
100
AcDbEntity
  8
_-0
  6
Continuous
100
AcDbLine
 10
719.4479723200748
 20
-1501.455068299969
 30
0.0
 11
719.4479723200748
 21
-953.3225422590185
 31
0.0
  0
LINE
  5
603
330
4BA
100
AcDbEntity
  8
_-0
  6
Continuous
100
AcDbLine
 10
642.5479723200806
 20
-1501.932572605074
 30
0.0
 11
642.5479723200806
 21
-953.4362742070953
 31
0.0
  0
LINE
  5
604
330
4BA
100
AcDbEntity
  8
_-0
  6
Continuous
100
AcDbLine
 10
565.6479723200864
 20
-1501.852036544486
 30
0.0
 11
565.6479723200864
 21
-953.3557381465071
 31
0.0
  0
ARC
  5
605
330
4BA
100
AcDbEntity
  8
0
370
    20
100
AcDbCircle
 10
258.0479723200806
 20
-907.2267286260467
 30
0.0
 40
24.5
100
AcDbArc
 50
226.1017185687245
 51
313.8982814312755
  0
LINE
  5
606
330
4BA
100
AcDbEntity
  8
0
370
    20
100
AcDbLine
 10
-71.0142124058948
 20
-920.5752169654879
 30
0.0
 11
-66.53984295395276
 21
-924.8807404141698
 31
0.0
  0
ARC
  5
607
330
4BA
100
AcDbEntity
  8
0
370
    20
100
AcDbCircle
 10
-88.00202767992232
 20
-938.2292287536111
 30
0.0
 40
24.5
100
AcDbArc
 50
46.10171856872449
 51
133.8982814312755
  0
LINE
  5
608
330
4BA
100
AcDbEntity
  8
0
370
    20
100
AcDbLine
 10
-147.914212405889
 20
-920.5752169654734
 30
0.0
 11
-143.4398429539615
 21
-924.8807404141698
 31
0.0
  0
ARC
  5
609
330
4BA
100
AcDbEntity
  8
0
370
    20
100
AcDbCircle
 10
-126.4520276799194
 20
-907.2267286260467
 30
0.0
 40
24.5
100
AcDbArc
 50
226.1017185687245
 51
313.8982814312755
  0
LINE
  5
60A
330
4BA
100
AcDbEntity
  8
0
370
    20
100
AcDbLine
 10
-104.9898429539498
 20
-920.5752169654879
 30
0.0
 11
-109.4642124058919
 21
-924.8807404141698
 31
0.0
  0
ARC
  5
60B
330
4BA
100
AcDbEntity
  8
0
370
    20
100
AcDbCircle
 10
104.2479723200777
 20
-907.2267286260467
 30
0.0
 40
24.5
100
AcDbArc
 50
226.1017185687245
 51
313.8982814312755
  0
LINE
  5
60C
330
4BA
100
AcDbEntity
  8
0
370
    20
100
AcDbLine
 10
82.78578759410811
 20
-920.5752169654879
 30
0.0
 11
87.26015704605015
 21
-924.8807404141698
 31
0.0
  0
LINE
  5
60D
330
4BA
100
AcDbEntity
  8
0
370
    20
100
AcDbLine
 10
48.81015704603851
 20
-920.5752169654879
 30
0.0
 11
44.33578759411103
 21
-924.8807404141698
 31
0.0
  0
LINE
  5
60E
330
4BA
100
AcDbEntity
  8
0
370
    20
100
AcDbLine
 10
-28.08984295395567
 20
-920.5752169654734
 30
0.0
 11
-32.56421240589771
 21
-924.8807404141698
 31
0.0
  0
LINE
  5
60F
330
4BA
100
AcDbEntity
  8
0
370
    20
100
AcDbLine
 10
5.885787594099384
 20
-920.5752169654734
 30
0.0
 11
10.36015704604142
 21
-924.8807404141698
 31
0.0
  0
ARC
  5
610
330
4BA
100
AcDbEntity
  8
0
370
    20
100
AcDbCircle
 10
-49.55202767992523
 20
-907.2267286260467
 30
0.0
 40
24.5
100
AcDbArc
 50
226.1017185687245
 51
313.8982814312755
  0
ARC
  5
611
330
4BA
100
AcDbEntity
  8
0
370
    20
100
AcDbCircle
 10
27.34797232006895
 20
-907.2267286260467
 30
0.0
 40
24.5
100
AcDbArc
 50
226.1017185687245
 51
313.8982814312755
  0
ARC
  5
612
330
4BA
100
AcDbEntity
  8
0
370
    20
100
AcDbCircle
 10
65.79797232008059
 20
-938.2292287536111
 30
0.0
 40
24.5
100
AcDbArc
 50
46.10171856872449
 51
133.8982814312755
  0
ARC
  5
613
330
4BA
100
AcDbEntity
  8
0
370
    20
100
AcDbCircle
 10
-11.10202767992814
 20
-938.2292287536111
 30
0.0
 40
24.5
100
AcDbArc
 50
46.10171856872449
 51
133.8982814312755
  0
LINE
  5
614
330
4BA
100
AcDbEntity
  8
0
370
    20
100
AcDbLine
 10
236.585787594111
 20
-920.5752169654879
 30
0.0
 11
241.0601570460531
 21
-924.8807404141698
 31
0.0
  0
ARC
  5
615
330
4BA
100
AcDbEntity
  8
0
370
    20
100
AcDbCircle
 10
181.1479723200719
 20
-907.2267286260467
 30
0.0
 40
24.5
100
AcDbArc
 50
226.1017185687245
 51
313.8982814312755
  0
LINE
  5
616
330
4BA
100
AcDbEntity
  8
0
370
    20
100
AcDbLine
 10
202.6101570460414
 20
-920.5752169654879
 30
0.0
 11
198.1357875940994
 21
-924.8807404141698
 31
0.0
  0
ARC
  5
617
330
4BA
100
AcDbEntity
  8
0
370
    20
100
AcDbCircle
 10
219.5979723200689
 20
-938.2292287536111
 30
0.0
 40
24.5
100
AcDbArc
 50
46.10171856872449
 51
133.8982814312755
  0
LINE
  5
618
330
4BA
100
AcDbEntity
  8
0
370
    20
100
AcDbLine
 10
125.7101570460472
 20
-920.5752169654734
 30
0.0
 11
121.2357875941052
 21
-924.8807404141698
 31
0.0
  0
ARC
  5
619
330
4BA
100
AcDbEntity
  8
0
370
    20
100
AcDbCircle
 10
142.6979723200748
 20
-938.2292287536111
 30
0.0
 40
24.5
100
AcDbArc
 50
46.10171856872449
 51
133.8982814312755
  0
LINE
  5
61A
330
4BA
100
AcDbEntity
  8
0
370
    20
100
AcDbLine
 10
159.6857875941023
 20
-920.5752169654734
 30
0.0
 11
164.1601570460443
 21
-924.8807404141698
 31
0.0
  0
LINE
  5
61B
330
4BA
100
AcDbEntity
  8
0
370
    20
100
AcDbLine
 10
313.4857875941052
 20
-920.5752169654734
 30
0.0
 11
317.9601570460472
 21
-924.8807404141698
 31
0.0
  0
LINE
  5
61C
330
4BA
100
AcDbEntity
  8
0
370
    20
100
AcDbLine
 10
279.5101570460502
 20
-920.5752169654734
 30
0.0
 11
275.0357875941081
 21
-924.8807404141698
 31
0.0
  0
ARC
  5
61D
330
4BA
100
AcDbEntity
  8
0
370
    20
100
AcDbCircle
 10
296.4979723200777
 20
-938.2292287536111
 30
0.0
 40
24.5
100
AcDbArc
 50
46.10171856872449
 51
133.8982814312755
  0
LINE
  5
61E
330
4BA
100
AcDbEntity
  8
0
370
    20
100
AcDbLine
 10
296.4979723200777
 20
-938.2292287536111
 30
0.0
 11
296.4979723200777
 21
-898.3847604710754
 31
0.0
  0
LINE
  5
61F
330
4BA
100
AcDbEntity
  8
_-0
  6
Continuous
100
AcDbLine
 10
-49.55202767992523
 20
-1501.932572605074
 30
0.0
 11
-49.55202767992523
 21
-953.4362742070953
 31
0.0
  0
LINE
  5
620
330
4BA
100
AcDbEntity
  8
_-0
  6
Continuous
100
AcDbLine
 10
27.34797232006895
 20
-1501.852036544486
 30
0.0
 11
27.34797232006895
 21
-953.3557381465071
 31
0.0
  0
LINE
  5
621
330
4BA
100
AcDbEntity
  8
_-0
  6
Continuous
100
AcDbLine
 10
-126.4520276799194
 20
-1501.455068299969
 30
0.0
 11
-126.4520276799194
 21
-953.3225422590185
 31
0.0
  0
LINE
  5
622
330
4BA
100
AcDbEntity
  8
_-0
  6
CENTER
 62
     4
370
    20
100
AcDbLine
 10
296.4979723200777
 20
-1552.502990707682
 30
0.0
 11
296.4979723200777
 21
-841.7066451830178
 31
0.0
  0
ARC
  5
623
330
4BA
100
AcDbEntity
  8
0
370
    20
100
AcDbCircle
 10
334.9479723200748
 20
-907.2267286260467
 30
0.0
 40
24.5
100
AcDbArc
 50
226.1017185687245
 51
313.8982814312755
  0
LINE
  5
624
330
4BA
100
AcDbEntity
  8
_-0
  6
Continuous
100
AcDbLine
 10
258.0479723200806
 20
-1289.03168837665
 30
0.0
 11
258.0479723200806
 21
-1105.49419795195
 31
0.0
  0
LINE
  5
625
330
4BA
100
AcDbEntity
  8
_-0
  6
Continuous
100
AcDbLine
 10
334.9479723200748
 20
-1289.03168837665
 30
0.0
 11
334.9479723200748
 21
-1105.49419795195
 31
0.0
  0
LINE
  5
626
330
4BA
100
AcDbEntity
  8
_-0
  6
Continuous
100
AcDbLine
 10
411.8479723200835
 20
-1289.03168837665
 30
0.0
 11
411.8479723200835
 21
-1105.49419795195
 31
0.0
  0
LINE
  5
627
330
4BA
100
AcDbEntity
  8
_-0
  6
Continuous
100
AcDbLine
 10
488.7479723200777
 20
-1289.03168837665
 30
0.0
 11
488.7479723200777
 21
-1105.49419795195
 31
0.0
  0
LINE
  5
628
330
4BA
100
AcDbEntity
  8
_-0
  6
Continuous
100
AcDbLine
 10
104.2479723200777
 20
-1208.876925488788
 30
0.0
 11
104.2479723200777
 21
-1119.234828290209
 31
0.0
  0
LINE
  5
629
330
4BA
100
AcDbEntity
  8
_-0
  6
Continuous
100
AcDbLine
 10
181.1479723200719
 20
-1289.03168837665
 30
0.0
 11
181.1479723200719
 21
-1105.49419795195
 31
0.0
  0
LINE
  5
62A
330
4BA
100
AcDbEntity
  8
_-0
  6
Continuous
100
AcDbLine
 10
104.2479723200777
 20
-1289.03168837665
 30
0.0
 11
104.2479723200777
 21
-1105.49419795195
 31
0.0
  0
LINE
  5
62B
330
4BA
100
AcDbEntity
  8
_-0
  6
CENTER
 62
     4
370
    20
100
AcDbLine
 10
296.4979723200777
 20
-1004.196311629494
 30
0.0
 11
296.4979723200777
 21
-863.4073002292862
 31
0.0
  0
DIMENSION
  5
62C
330
4BA
100
AcDbEntity
  8
0
370
    20
100
AcDbDimension
  2
*D16
 10
471.4979723200995
 20
-768.834597728317
 30
0.0
 11
296.4979723200959
 21
-720.6118752168651
 31
0.0
 70
    32
  1
開口<>
 71
     5
 42
350.0000000000073
  3
ASKSTANDARD2
100
AcDbAlignedDimension
 13
121.4979723200922
 23
-1036.874383105169
 33
0.0
 14
471.4979723200995
 24
-1036.874383105169
 34
0.0
100
AcDbRotatedDimension
1001
ACAD
1000
DSTYLE
1002
{
1070
    40
1040
20.0
1070
    77
1070
     1
1070
    78
1070
     8
1070
   147
1040
1.0
1070
   176
1070
     7
1070
   177
1070
     7
1070
   178
1070
     7
1070
   179
1070
     1
1070
   271
1070
     1
1070
   272
1070
     1
1070
   288
1070
     0
1070
   289
1070
     3
1070
   340
1005
4D2
1070
   341
1005
53D
1070
   342
1005
53D
1002
}
  0
DIMENSION
  5
639
330
4BA
100
AcDbEntity
  8
0
370
    20
100
AcDbDimension
  2
*D17
 10
373.3979723200719
 20
-870.7498962147656
 30
0.0
 11
534.0000391399522
 21
-828.7498962147656
 31
0.0
 70
    32
 71
     5
 42
76.89999999999418
  3
ASKSTANDARD2
100
AcDbAlignedDimension
 13
296.4979723200777
 23
-913.7292287536111
 33
0.0
 14
373.3979723200719
 24
-913.7292287536111
 34
0.0
100
AcDbRotatedDimension
1001
ACAD
1000
DSTYLE
1002
{
1070
    40
1040
20.0
1070
    77
1070
     1
1070
    78
1070
     8
1070
   147
1040
1.0
1070
   176
1070
     7
1070
   177
1070
     7
1070
   178
1070
     7
1070
   179
1070
     1
1070
   271
1070
     1
1070
   272
1070
     1
1070
   288
1070
     0
1070
   289
1070
     3
1070
   340
1005
4D2
1070
   341
1005
53D
1070
   342
1005
53D
1002
}
  0
LINE
  5
648
102
{ACAD_REACTORS
102
}
330
4BA
100
AcDbEntity
  8
0
370
    20
100
AcDbLine
 10
242.4979723200777
 20
-1022.98789276083
 30
0.0
 11
350.4979723200777
 21
-1022.98789276083
 31
0.0
  0
LINE
  5
649
102
{ACAD_REACTORS
102
}
330
4BA
100
AcDbEntity
  8
0
  6
CENTER1
 62
     4
370
    20
100
AcDbLine
 10
129.5288028401228
 20
-1032.48789276083
 30
0.0
 11
458.673739048445
 21
-1032.48789276083
 31
0.0
  0
LINE
  5
64A
102
{ACAD_REACTORS
102
}
330
4BA
100
AcDbEntity
  8
0
370
    20
100
AcDbLine
 10
96.49797232007768
 20
-982.4878927608297
 30
0.0
 11
496.4979723200777
 21
-982.4878927608297
 31
0.0
  0
LINE
  5
64B
102
{ACAD_REACTORS
102
}
330
4BA
100
AcDbEntity
  8
0
370
    20
100
AcDbLine
 10
96.49797232007768
 20
-983.9878927608297
 30
0.0
 11
496.4979723200777
 21
-983.9878927608297
 31
0.0
  0
LINE
  5
64C
102
{ACAD_REACTORS
102
}
330
4BA
100
AcDbEntity
  8
0
  6
CENTER1
 62
     4
370
    20
100
AcDbLine
 10
96.49797232007768
 20
-1003.98789276083
 30
0.0
 11
509.9854433950932
 21
-1003.98789276083
 31
0.0
  0
LINE
  5
64D
102
{ACAD_REACTORS
102
}
330
4BA
100
AcDbEntity
  8
0
370
    20
100
AcDbLine
 10
121.4979723200704
 20
-1083.48789276083
 30
0.0
 11
471.4979723200704
 21
-1083.48789276083
 31
0.0
  0
LINE
  5
64E
102
{ACAD_REACTORS
102
}
330
4BA
100
AcDbEntity
  8
0
370
    20
100
AcDbLine
 10
121.4979723200704
 20
-1084.98789276083
 30
0.0
 11
471.4979723200704
 21
-1084.98789276083
 31
0.0
  0
LINE
  5
64F
102
{ACAD_REACTORS
102
}
330
4BA
100
AcDbEntity
  8
0
  6
CENTER1
 62
     4
370
    20
100
AcDbLine
 10
155.5326993649032
 20
-1032.48789276083
 30
0.0
 11
437.7456357317678
 21
-1032.48789276083
 31
0.0
  0
LINE
  5
650
102
{ACAD_REACTORS
102
}
330
4BA
100
AcDbEntity
  8
0
370
    20
100
AcDbLine
 10
222.2479723200777
 20
-1037.487892760844
 30
0.0
 11
370.7479723200777
 21
-1037.487892760844
 31
0.0
  0
LINE
  5
651
102
{ACAD_REACTORS
102
}
330
4BA
100
AcDbEntity
  8
0
  6
CENTER1
 62
     4
370
    20
100
AcDbLine
 10
113.1006781895812
 20
-1062.487892760844
 30
0.0
 11
477.3754925749636
 21
-1062.487892760844
 31
0.0
  0
LINE
  5
652
102
{ACAD_REACTORS
102
}
330
4BA
100
AcDbEntity
  8
0
370
    20
100
AcDbLine
 10
136.4979723200777
 20
-1029.987892760844
 30
0.0
 11
456.4979723200777
 21
-1029.987892760844
 31
0.0
  0
LINE
  5
653
102
{ACAD_REACTORS
102
}
330
4BA
100
AcDbEntity
  8
0
370
    20
100
AcDbLine
 10
456.4979723200777
 20
-1034.987892760844
 30
0.0
 11
136.4979723200777
 21
-1034.987892760844
 31
0.0
  0
LINE
  5
654
102
{ACAD_REACTORS
102
}
330
4BA
100
AcDbEntity
  8
0
  6
CENTER1
 62
     4
370
    20
100
AcDbLine
 10
131.9807431766785
 20
-1032.487892760844
 30
0.0
 11
464.0632120456539
 21
-1032.487892760844
 31
0.0
  0
ARC
  5
655
102
{ACAD_REACTORS
102
}
330
4BA
100
AcDbEntity
  8
0
370
    20
100
AcDbCircle
 10
296.4979723200777
 20
-1009.48789276083
 30
0.0
 40
4.5
100
AcDbArc
 50
180.0
 51
0.0
  0
ARC
  5
656
102
{ACAD_REACTORS
102
}
330
4BA
100
AcDbEntity
  8
0
370
    20
100
AcDbCircle
 10
296.4979723200777
 20
-998.4878927608297
 30
0.0
 40
4.5
100
AcDbArc
 50
0.0
 51
180.0
  0
LINE
  5
657
102
{ACAD_REACTORS
102
}
330
4BA
100
AcDbEntity
  8
0
370
    20
100
AcDbLine
 10
291.9979723200777
 20
-998.4878927608297
 30
0.0
 11
291.9979723200777
 21
-1009.48789276083
 31
0.0
  0
LINE
  5
658
102
{ACAD_REACTORS
102
}
330
4BA
100
AcDbEntity
  8
0
370
    20
100
AcDbLine
 10
300.9979723200777
 20
-998.4878927608297
 30
0.0
 11
300.9979723200777
 21
-1009.48789276083
 31
0.0
  0
LINE
  5
659
102
{ACAD_REACTORS
102
}
330
4BA
100
AcDbEntity
  8
0
370
    20
100
AcDbLine
 10
300.9979723200777
 20
-1067.98789276083
 30
0.0
 11
300.9979723200777
 21
-1056.98789276083
 31
0.0
  0
LINE
  5
65A
102
{ACAD_REACTORS
102
}
330
4BA
100
AcDbEntity
  8
0
370
    20
100
AcDbLine
 10
291.9979723200777
 20
-1067.98789276083
 30
0.0
 11
291.9979723200777
 21
-1056.98789276083
 31
0.0
  0
ARC
  5
65B
102
{ACAD_REACTORS
102
}
330
4BA
100
AcDbEntity
  8
0
370
    20
100
AcDbCircle
 10
296.4979723200777
 20
-1056.98789276083
 30
0.0
 40
4.5
100
AcDbArc
 50
0.0
 51
180.0
  0
ARC
  5
65C
102
{ACAD_REACTORS
102
}
330
4BA
100
AcDbEntity
  8
0
370
    20
100
AcDbCircle
 10
296.4979723200777
 20
-1067.98789276083
 30
0.0
 40
4.5
100
AcDbArc
 50
180.0
 51
0.0
  0
LINE
  5
65D
102
{ACAD_REACTORS
102
}
330
4BA
100
AcDbEntity
  8
0
  6
CENTER1
 62
     4
370
    20
100
AcDbLine
 10
296.4979723200777
 20
-1084.98789276083
 30
0.0
 11
296.4979723200777
 21
-1044.48789276083
 31
0.0
  0
LINE
  5
65E
102
{ACAD_REACTORS
102
}
330
4BA
100
AcDbEntity
  8
0
  6
CENTER1
 62
     4
370
    20
100
AcDbLine
 10
296.4979723200777
 20
-982.4878927608297
 30
0.0
 11
296.4979723200777
 21
-1022.98789276083
 31
0.0
  0
LINE
  5
65F
102
{ACAD_REACTORS
102
}
330
4BA
100
AcDbEntity
  8
0
370
    20
100
AcDbLine
 10
201.9979723200777
 20
-1022.98789276083
 30
0.0
 11
222.4979723200777
 21
-1022.98789276083
 31
0.0
  0
LINE
  5
660
102
{ACAD_REACTORS
102
}
330
4BA
100
AcDbEntity
  8
0
370
    20
100
AcDbLine
 10
161.4979723200777
 20
-1022.98789276083
 30
0.0
 11
181.9979723200559
 21
-1022.98789276083
 31
0.0
  0
LINE
  5
661
102
{ACAD_REACTORS
102
}
330
4BA
100
AcDbEntity
  8
0
370
    20
100
AcDbLine
 10
201.9979723200704
 20
-1027.98789276083
 30
0.0
 11
181.9979723200777
 21
-1027.987892760844
 31
0.0
  0
LINE
  5
662
102
{ACAD_REACTORS
102
}
330
4BA
100
AcDbEntity
  8
0
  6
DASHED
 62
     1
370
    20
100
AcDbLine
 10
201.9979723200704
 20
-1029.48789276083
 30
0.0
 11
181.9979723200777
 21
-1029.487892760844
 31
0.0
  0
LINE
  5
663
102
{ACAD_REACTORS
102
}
330
4BA
100
AcDbEntity
  8
0
370
    20
100
AcDbLine
 10
242.4979723200777
 20
-1027.987892760844
 30
0.0
 11
222.4979723200777
 21
-1027.987892760844
 31
0.0
  0
LINE
  5
664
102
{ACAD_REACTORS
102
}
330
4BA
100
AcDbEntity
  8
0
  6
DASHED
 62
     1
370
    20
100
AcDbLine
 10
242.4979723200777
 20
-1029.487892760844
 30
0.0
 11
222.4979723200777
 21
-1029.487892760844
 31
0.0
  0
LINE
  5
665
102
{ACAD_REACTORS
102
}
330
4BA
100
AcDbEntity
  8
0
  6
DASHED
 62
     1
370
    20
100
AcDbLine
 10
202.2479723200777
 20
-1029.48789276083
 30
0.0
 11
222.2479723200777
 21
-1029.48789276083
 31
0.0
  0
LINE
  5
666
102
{ACAD_REACTORS
102
}
330
4BA
100
AcDbEntity
  8
0
370
    20
100
AcDbLine
 10
202.2479723200777
 20
-1027.98789276083
 30
0.0
 11
222.2479723200777
 21
-1027.98789276083
 31
0.0
  0
LINE
  5
667
102
{ACAD_REACTORS
102
}
330
4BA
100
AcDbEntity
  8
0
  6
DASHED
 62
     1
370
    20
100
AcDbLine
 10
161.7479723200777
 20
-1029.48789276083
 30
0.0
 11
181.7479723200631
 21
-1029.48789276083
 31
0.0
  0
LINE
  5
668
102
{ACAD_REACTORS
102
}
330
4BA
100
AcDbEntity
  8
0
370
    20
100
AcDbLine
 10
161.7479723200777
 20
-1027.98789276083
 30
0.0
 11
181.7479723200631
 21
-1027.98789276083
 31
0.0
  0
LINE
  5
669
102
{ACAD_REACTORS
102
}
330
4BA
100
AcDbEntity
  8
0
370
    20
100
AcDbLine
 10
147.1979723200748
 20
-998.4878927608297
 30
0.0
 11
147.197972320082
 21
-1009.48789276083
 31
0.0
  0
LINE
  5
66A
102
{ACAD_REACTORS
102
}
330
4BA
100
AcDbEntity
  8
0
370
    20
100
AcDbLine
 10
99.49797232007768
 20
-1022.98789276083
 30
0.0
 11
141.4979723200704
 21
-1022.98789276083
 31
0.0
  0
LINE
  5
66B
102
{ACAD_REACTORS
102
}
330
4BA
100
AcDbEntity
  8
0
370
    20
100
AcDbLine
 10
96.4979723200704
 20
-982.4878927608297
 30
0.0
 11
96.49797232007768
 21
-1019.98789276083
 31
0.0
  0
ARC
  5
66C
102
{ACAD_REACTORS
102
}
330
4BA
100
AcDbEntity
  8
0
370
    20
100
AcDbCircle
 10
99.49797232007768
 20
-1019.98789276083
 30
0.0
 40
3.0
100
AcDbArc
 50
180.0
 51
270.0
  0
LINE
  5
66D
102
{ACAD_REACTORS
102
}
330
4BA
100
AcDbEntity
  8
0
370
    20
100
AcDbLine
 10
99.4979723200704
 20
-983.9878927608297
 30
0.0
 11
99.49797232007768
 21
-982.4878927608297
 31
0.0
  0
LINE
  5
66E
102
{ACAD_REACTORS
102
}
330
4BA
100
AcDbEntity
  8
0
370
    20
100
AcDbLine
 10
138.1979723200748
 20
-998.4878927608297
 30
0.0
 11
138.1979723200748
 21
-1009.48789276083
 31
0.0
  0
LINE
  5
66F
102
{ACAD_REACTORS
102
}
330
4BA
100
AcDbEntity
  8
0
  6
CENTER1
 62
     4
370
    20
100
AcDbLine
 10
142.6979723200748
 20
-982.4878927608297
 30
0.0
 11
142.6979723200748
 21
-1020.48789276083
 31
0.0
  0
LINE
  5
670
102
{ACAD_REACTORS
102
}
330
4BA
100
AcDbEntity
  8
0
370
    20
100
AcDbLine
 10
161.4979723200704
 20
-1027.987892760844
 30
0.0
 11
141.4979723200704
 21
-1027.987892760844
 31
0.0
  0
LINE
  5
671
102
{ACAD_REACTORS
102
}
330
4BA
100
AcDbEntity
  8
0
  6
DASHED
 62
     1
370
    20
100
AcDbLine
 10
161.4979723200704
 20
-1029.487892760844
 30
0.0
 11
141.4979723200704
 21
-1029.487892760844
 31
0.0
  0
ARC
  5
672
102
{ACAD_REACTORS
102
}
330
4BA
100
AcDbEntity
  8
0
370
    20
100
AcDbCircle
 10
142.6979723200748
 20
-998.4878927608297
 30
0.0
 40
4.5
100
AcDbArc
 50
0.0
 51
180.0
  0
ARC
  5
673
102
{ACAD_REACTORS
102
}
330
4BA
100
AcDbEntity
  8
0
370
    20
100
AcDbCircle
 10
142.6979723200748
 20
-1009.48789276083
 30
0.0
 40
4.5
100
AcDbArc
 50
180.0
 51
0.0
  0
LINE
  5
674
102
{ACAD_REACTORS
102
}
330
4BA
100
AcDbEntity
  8
0
370
    20
100
AcDbLine
 10
201.9979723200777
 20
-1036.98789276083
 30
0.0
 11
181.9979723200777
 21
-1036.98789276083
 31
0.0
  0
LINE
  5
675
102
{ACAD_REACTORS
102
}
330
4BA
100
AcDbEntity
  8
0
  6
DASHED
 62
     1
370
    20
100
AcDbLine
 10
201.9979723200777
 20
-1035.48789276083
 30
0.0
 11
181.9979723200777
 21
-1035.48789276083
 31
0.0
  0
LINE
  5
676
102
{ACAD_REACTORS
102
}
330
4BA
100
AcDbEntity
  8
0
370
    20
100
AcDbLine
 10
242.4979723200777
 20
-1036.987892760844
 30
0.0
 11
222.4979723200777
 21
-1036.987892760844
 31
0.0
  0
LINE
  5
677
102
{ACAD_REACTORS
102
}
330
4BA
100
AcDbEntity
  8
0
  6
DASHED
 62
     1
370
    20
100
AcDbLine
 10
242.4979723200777
 20
-1035.487892760844
 30
0.0
 11
222.4979723200777
 21
-1035.487892760844
 31
0.0
  0
LINE
  5
678
102
{ACAD_REACTORS
102
}
330
4BA
100
AcDbEntity
  8
0
370
    20
100
AcDbLine
 10
181.7479723200704
 20
-1037.487892760844
 30
0.0
 11
202.2479723200777
 21
-1037.487892760844
 31
0.0
  0
LINE
  5
679
102
{ACAD_REACTORS
102
}
330
4BA
100
AcDbEntity
  8
0
370
    20
100
AcDbLine
 10
147.1979723200748
 20
-1067.98789276083
 30
0.0
 11
147.197972320082
 21
-1056.98789276083
 31
0.0
  0
ARC
  5
67A
102
{ACAD_REACTORS
102
}
330
4BA
100
AcDbEntity
  8
0
370
    20
100
AcDbCircle
 10
124.4979723200922
 20
-1040.487892760844
 30
0.0
 40
3.0
100
AcDbArc
 50
90.0
 51
180.0
  0
LINE
  5
67B
102
{ACAD_REACTORS
102
}
330
4BA
100
AcDbEntity
  8
0
370
    20
100
AcDbLine
 10
124.497972320085
 20
-1083.487892760844
 30
0.0
 11
124.4979723200922
 21
-1084.98789276083
 31
0.0
  0
LINE
  5
67C
102
{ACAD_REACTORS
102
}
330
4BA
100
AcDbEntity
  8
0
370
    20
100
AcDbLine
 10
121.4979723200704
 20
-1084.987892760844
 30
0.0
 11
121.4979723200922
 21
-1040.48789276083
 31
0.0
  0
LINE
  5
67D
102
{ACAD_REACTORS
102
}
330
4BA
100
AcDbEntity
  8
0
  6
CENTER1
 62
     4
370
    20
100
AcDbLine
 10
142.6979723200748
 20
-1084.98789276083
 30
0.0
 11
142.6979723200748
 21
-1044.48789276083
 31
0.0
  0
LINE
  5
67E
102
{ACAD_REACTORS
102
}
330
4BA
100
AcDbEntity
  8
0
370
    20
100
AcDbLine
 10
138.1979723200748
 20
-1067.98789276083
 30
0.0
 11
138.1979723200748
 21
-1056.98789276083
 31
0.0
  0
LINE
  5
67F
102
{ACAD_REACTORS
102
}
330
4BA
100
AcDbEntity
  8
0
370
    20
100
AcDbLine
 10
161.4979723200777
 20
-1036.98789276083
 30
0.0
 11
141.4979723200777
 21
-1036.98789276083
 31
0.0
  0
LINE
  5
680
102
{ACAD_REACTORS
102
}
330
4BA
100
AcDbEntity
  8
0
  6
DASHED
 62
     1
370
    20
100
AcDbLine
 10
161.4979723200777
 20
-1035.48789276083
 30
0.0
 11
141.4979723200777
 21
-1035.48789276083
 31
0.0
  0
LINE
  5
681
102
{ACAD_REACTORS
102
}
330
4BA
100
AcDbEntity
  8
0
370
    20
100
AcDbLine
 10
124.4979723200922
 20
-1037.487892760844
 30
0.0
 11
161.7479723200777
 21
-1037.487892760844
 31
0.0
  0
ARC
  5
682
102
{ACAD_REACTORS
102
}
330
4BA
100
AcDbEntity
  8
0
370
    20
100
AcDbCircle
 10
142.6979723200748
 20
-1067.98789276083
 30
0.0
 40
4.5
100
AcDbArc
 50
180.0
 51
0.0
  0
ARC
  5
683
102
{ACAD_REACTORS
102
}
330
4BA
100
AcDbEntity
  8
0
370
    20
100
AcDbCircle
 10
142.6979723200748
 20
-1056.98789276083
 30
0.0
 40
4.5
100
AcDbArc
 50
0.0
 51
180.0
  0
LINE
  5
684
102
{ACAD_REACTORS
102
}
330
4BA
100
AcDbEntity
  8
0
370
    20
100
AcDbLine
 10
141.4979723200704
 20
-1022.98789276083
 30
0.0
 11
141.4979723200704
 21
-1036.98789276083
 31
0.0
  0
LINE
  5
685
102
{ACAD_REACTORS
102
}
330
4BA
100
AcDbEntity
  8
0
370
    20
100
AcDbLine
 10
161.4979723200777
 20
-1036.98789276083
 30
0.0
 11
161.4979723200777
 21
-1022.98789276083
 31
0.0
  0
LINE
  5
686
102
{ACAD_REACTORS
102
}
330
4BA
100
AcDbEntity
  8
0
370
    20
100
AcDbLine
 10
242.4979723200777
 20
-1036.987892760844
 30
0.0
 11
242.4979723200777
 21
-1022.98789276083
 31
0.0
  0
LINE
  5
687
102
{ACAD_REACTORS
102
}
330
4BA
100
AcDbEntity
  8
0
370
    20
100
AcDbLine
 10
181.9979723200777
 20
-1036.98789276083
 30
0.0
 11
181.9979723200559
 21
-1022.98789276083
 31
0.0
  0
LINE
  5
688
102
{ACAD_REACTORS
102
}
330
4BA
100
AcDbEntity
  8
0
370
    20
100
AcDbLine
 10
201.9979723200777
 20
-1036.98789276083
 30
0.0
 11
201.9979723200777
 21
-1022.98789276083
 31
0.0
  0
LINE
  5
689
102
{ACAD_REACTORS
102
}
330
4BA
100
AcDbEntity
  8
0
370
    20
100
AcDbLine
 10
222.4979723200777
 20
-1022.98789276083
 30
0.0
 11
222.4979723200777
 21
-1036.987892760844
 31
0.0
  0
LINE
  5
68A
102
{ACAD_REACTORS
102
}
330
4BA
100
AcDbEntity
  8
0
370
    20
100
AcDbLine
 10
222.2479723200777
 20
-1027.98789276083
 30
0.0
 11
222.2479723200777
 21
-1037.487892760844
 31
0.0
  0
LINE
  5
68B
102
{ACAD_REACTORS
102
}
330
4BA
100
AcDbEntity
  8
0
370
    20
100
AcDbLine
 10
202.2479723200777
 20
-1027.98789276083
 30
0.0
 11
202.2479723200777
 21
-1037.487892760844
 31
0.0
  0
LINE
  5
68C
102
{ACAD_REACTORS
102
}
330
4BA
100
AcDbEntity
  8
0
370
    20
100
AcDbLine
 10
161.7479723200777
 20
-1027.98789276083
 30
0.0
 11
161.7479723200777
 21
-1037.487892760844
 31
0.0
  0
LINE
  5
68D
102
{ACAD_REACTORS
102
}
330
4BA
100
AcDbEntity
  8
0
370
    20
100
AcDbLine
 10
181.7479723200631
 20
-1027.98789276083
 30
0.0
 11
181.7479723200777
 21
-1037.487892760844
 31
0.0
  0
LINE
  5
68E
102
{ACAD_REACTORS
102
}
330
4BA
100
AcDbEntity
  8
0
370
    20
100
AcDbLine
 10
136.4979723200777
 20
-1034.987892760844
 30
0.0
 11
136.4979723200777
 21
-1029.987892760844
 31
0.0
  0
LINE
  5
68F
102
{ACAD_REACTORS
102
}
330
4BA
100
AcDbEntity
  8
0
  6
DASHED
 62
     1
370
    20
100
AcDbLine
 10
451.4979723200777
 20
-1029.487892760844
 30
0.0
 11
431.4979723200777
 21
-1029.487892760844
 31
0.0
  0
LINE
  5
690
102
{ACAD_REACTORS
102
}
330
4BA
100
AcDbEntity
  8
0
370
    20
100
AcDbLine
 10
451.4979723200777
 20
-1027.987892760844
 30
0.0
 11
431.4979723200777
 21
-1027.987892760844
 31
0.0
  0
LINE
  5
691
102
{ACAD_REACTORS
102
}
330
4BA
100
AcDbEntity
  8
0
370
    20
100
AcDbLine
 10
496.4979723200704
 20
-982.4878927608297
 30
0.0
 11
496.4979723200777
 21
-1019.98789276083
 31
0.0
  0
LINE
  5
692
102
{ACAD_REACTORS
102
}
330
4BA
100
AcDbEntity
  8
0
370
    20
100
AcDbLine
 10
451.497972320085
 20
-1022.98789276083
 30
0.0
 11
493.4979723200777
 21
-1022.98789276083
 31
0.0
  0
ARC
  5
693
102
{ACAD_REACTORS
102
}
330
4BA
100
AcDbEntity
  8
0
370
    20
100
AcDbCircle
 10
493.4979723200777
 20
-1019.98789276083
 30
0.0
 40
3.0
100
AcDbArc
 50
270.0
 51
0.0
  0
LINE
  5
694
102
{ACAD_REACTORS
102
}
330
4BA
100
AcDbEntity
  8
0
370
    20
100
AcDbLine
 10
493.4979723200631
 20
-983.9878927608297
 30
0.0
 11
493.4979723200704
 21
-982.4878927608297
 31
0.0
  0
ARC
  5
695
102
{ACAD_REACTORS
102
}
330
4BA
100
AcDbEntity
  8
0
370
    20
100
AcDbCircle
 10
450.2979723200733
 20
-998.4878927608297
 30
0.0
 40
4.5
100
AcDbArc
 50
0.0
 51
180.0
  0
LINE
  5
696
102
{ACAD_REACTORS
102
}
330
4BA
100
AcDbEntity
  8
0
370
    20
100
AcDbLine
 10
445.7979723200733
 20
-998.4878927608297
 30
0.0
 11
445.7979723200733
 21
-1009.48789276083
 31
0.0
  0
LINE
  5
697
102
{ACAD_REACTORS
102
}
330
4BA
100
AcDbEntity
  8
0
370
    20
100
AcDbLine
 10
454.7979723200733
 20
-998.4878927608297
 30
0.0
 11
454.7979723200806
 21
-1009.48789276083
 31
0.0
  0
ARC
  5
698
102
{ACAD_REACTORS
102
}
330
4BA
100
AcDbEntity
  8
0
370
    20
100
AcDbCircle
 10
450.2979723200733
 20
-1009.48789276083
 30
0.0
 40
4.5
100
AcDbArc
 50
180.0
 51
0.0
  0
LINE
  5
699
102
{ACAD_REACTORS
102
}
330
4BA
100
AcDbEntity
  8
0
  6
CENTER1
 62
     4
370
    20
100
AcDbLine
 10
450.2979723200733
 20
-982.4878927608297
 30
0.0
 11
450.2979723200733
 21
-1020.48789276083
 31
0.0
  0
LINE
  5
69A
102
{ACAD_REACTORS
102
}
330
4BA
100
AcDbEntity
  8
0
  6
DASHED
 62
     1
370
    20
100
AcDbLine
 10
410.9979723200777
 20
-1029.48789276083
 30
0.0
 11
390.997972320085
 21
-1029.487892760844
 31
0.0
  0
LINE
  5
69B
102
{ACAD_REACTORS
102
}
330
4BA
100
AcDbEntity
  8
0
370
    20
100
AcDbLine
 10
410.9979723200777
 20
-1027.98789276083
 30
0.0
 11
390.997972320085
 21
-1027.987892760844
 31
0.0
  0
LINE
  5
69C
102
{ACAD_REACTORS
102
}
330
4BA
100
AcDbEntity
  8
0
370
    20
100
AcDbLine
 10
370.4979723200777
 20
-1022.98789276083
 30
0.0
 11
390.9979723200704
 21
-1022.98789276083
 31
0.0
  0
LINE
  5
69D
102
{ACAD_REACTORS
102
}
330
4BA
100
AcDbEntity
  8
0
  6
DASHED
 62
     1
370
    20
100
AcDbLine
 10
370.4979723200777
 20
-1029.487892760844
 30
0.0
 11
350.4979723200777
 21
-1029.487892760844
 31
0.0
  0
LINE
  5
69E
102
{ACAD_REACTORS
102
}
330
4BA
100
AcDbEntity
  8
0
370
    20
100
AcDbLine
 10
370.4979723200777
 20
-1027.987892760844
 30
0.0
 11
350.4979723200777
 21
-1027.987892760844
 31
0.0
  0
LINE
  5
69F
102
{ACAD_REACTORS
102
}
330
4BA
100
AcDbEntity
  8
0
370
    20
100
AcDbLine
 10
390.7479723200777
 20
-1027.98789276083
 30
0.0
 11
370.7479723200777
 21
-1027.98789276083
 31
0.0
  0
LINE
  5
6A0
102
{ACAD_REACTORS
102
}
330
4BA
100
AcDbEntity
  8
0
  6
DASHED
 62
     1
370
    20
100
AcDbLine
 10
390.7479723200777
 20
-1029.48789276083
 30
0.0
 11
370.7479723200777
 21
-1029.48789276083
 31
0.0
  0
LINE
  5
6A1
102
{ACAD_REACTORS
102
}
330
4BA
100
AcDbEntity
  8
0
370
    20
100
AcDbLine
 10
410.9979723200777
 20
-1022.98789276083
 30
0.0
 11
431.4979723200704
 21
-1022.98789276083
 31
0.0
  0
LINE
  5
6A2
102
{ACAD_REACTORS
102
}
330
4BA
100
AcDbEntity
  8
0
370
    20
100
AcDbLine
 10
431.2479723200777
 20
-1027.98789276083
 30
0.0
 11
411.2479723200922
 21
-1027.98789276083
 31
0.0
  0
LINE
  5
6A3
102
{ACAD_REACTORS
102
}
330
4BA
100
AcDbEntity
  8
0
  6
DASHED
 62
     1
370
    20
100
AcDbLine
 10
431.2479723200777
 20
-1029.48789276083
 30
0.0
 11
411.2479723200922
 21
-1029.48789276083
 31
0.0
  0
LINE
  5
6A4
102
{ACAD_REACTORS
102
}
330
4BA
100
AcDbEntity
  8
0
  6
DASHED
 62
     1
370
    20
100
AcDbLine
 10
451.497972320085
 20
-1035.487892760844
 30
0.0
 11
431.497972320085
 21
-1035.487892760844
 31
0.0
  0
LINE
  5
6A5
102
{ACAD_REACTORS
102
}
330
4BA
100
AcDbEntity
  8
0
370
    20
100
AcDbLine
 10
451.497972320085
 20
-1036.987892760844
 30
0.0
 11
431.497972320085
 21
-1036.987892760844
 31
0.0
  0
ARC
  5
6A6
102
{ACAD_REACTORS
102
}
330
4BA
100
AcDbEntity
  8
0
370
    20
100
AcDbCircle
 10
468.497972320085
 20
-1040.487892760844
 30
0.0
 40
3.0
100
AcDbArc
 50
0.0
 51
90.0
  0
LINE
  5
6A7
102
{ACAD_REACTORS
102
}
330
4BA
100
AcDbEntity
  8
0
370
    20
100
AcDbLine
 10
468.497972320085
 20
-1083.48789276083
 30
0.0
 11
468.497972320085
 21
-1084.98789276083
 31
0.0
  0
LINE
  5
6A8
102
{ACAD_REACTORS
102
}
330
4BA
100
AcDbEntity
  8
0
370
    20
100
AcDbLine
 10
471.4979723200704
 20
-1084.98789276083
 30
0.0
 11
471.497972320085
 21
-1040.487892760844
 31
0.0
  0
LINE
  5
6A9
102
{ACAD_REACTORS
102
}
330
4BA
100
AcDbEntity
  8
0
370
    20
100
AcDbLine
 10
431.2479723200777
 20
-1037.48789276083
 30
0.0
 11
468.497972320085
 21
-1037.48789276083
 31
0.0
  0
LINE
  5
6AA
102
{ACAD_REACTORS
102
}
330
4BA
100
AcDbEntity
  8
0
  6
CENTER1
 62
     4
370
    20
100
AcDbLine
 10
450.2979723200733
 20
-1084.98789276083
 30
0.0
 11
450.2979723200733
 21
-1044.48789276083
 31
0.0
  0
LINE
  5
6AB
102
{ACAD_REACTORS
102
}
330
4BA
100
AcDbEntity
  8
0
370
    20
100
AcDbLine
 10
454.7979723200733
 20
-1067.98789276083
 30
0.0
 11
454.7979723200806
 21
-1056.98789276083
 31
0.0
  0
LINE
  5
6AC
102
{ACAD_REACTORS
102
}
330
4BA
100
AcDbEntity
  8
0
370
    20
100
AcDbLine
 10
445.7979723200733
 20
-1067.98789276083
 30
0.0
 11
445.7979723200733
 21
-1056.98789276083
 31
0.0
  0
ARC
  5
6AD
102
{ACAD_REACTORS
102
}
330
4BA
100
AcDbEntity
  8
0
370
    20
100
AcDbCircle
 10
450.2979723200733
 20
-1067.98789276083
 30
0.0
 40
4.5
100
AcDbArc
 50
180.0
 51
0.0
  0
ARC
  5
6AE
102
{ACAD_REACTORS
102
}
330
4BA
100
AcDbEntity
  8
0
370
    20
100
AcDbCircle
 10
450.2979723200733
 20
-1056.98789276083
 30
0.0
 40
4.5
100
AcDbArc
 50
0.0
 51
180.0
  0
LINE
  5
6AF
102
{ACAD_REACTORS
102
}
330
4BA
100
AcDbEntity
  8
0
  6
DASHED
 62
     1
370
    20
100
AcDbLine
 10
410.9979723200777
 20
-1035.48789276083
 30
0.0
 11
390.9979723200922
 21
-1035.48789276083
 31
0.0
  0
LINE
  5
6B0
102
{ACAD_REACTORS
102
}
330
4BA
100
AcDbEntity
  8
0
370
    20
100
AcDbLine
 10
410.9979723200777
 20
-1036.98789276083
 30
0.0
 11
390.9979723200922
 21
-1036.98789276083
 31
0.0
  0
LINE
  5
6B1
102
{ACAD_REACTORS
102
}
330
4BA
100
AcDbEntity
  8
0
  6
DASHED
 62
     1
370
    20
100
AcDbLine
 10
370.4979723200777
 20
-1035.48789276083
 30
0.0
 11
350.4979723200777
 21
-1035.48789276083
 31
0.0
  0
LINE
  5
6B2
102
{ACAD_REACTORS
102
}
330
4BA
100
AcDbEntity
  8
0
370
    20
100
AcDbLine
 10
370.4979723200777
 20
-1036.98789276083
 30
0.0
 11
350.4979723200777
 21
-1036.98789276083
 31
0.0
  0
LINE
  5
6B3
102
{ACAD_REACTORS
102
}
330
4BA
100
AcDbEntity
  8
0
370
    20
100
AcDbLine
 10
390.7479723200777
 20
-1037.48789276083
 30
0.0
 11
411.2479723200777
 21
-1037.48789276083
 31
0.0
  0
LINE
  5
6B4
102
{ACAD_REACTORS
102
}
330
4BA
100
AcDbEntity
  8
0
370
    20
100
AcDbLine
 10
431.4979723200704
 20
-1022.98789276083
 30
0.0
 11
431.497972320085
 21
-1036.987892760844
 31
0.0
  0
LINE
  5
6B5
102
{ACAD_REACTORS
102
}
330
4BA
100
AcDbEntity
  8
0
370
    20
100
AcDbLine
 10
390.9979723200922
 20
-1036.98789276083
 30
0.0
 11
390.9979723200704
 21
-1022.98789276083
 31
0.0
  0
LINE
  5
6B6
102
{ACAD_REACTORS
102
}
330
4BA
100
AcDbEntity
  8
0
370
    20
100
AcDbLine
 10
370.4979723200777
 20
-1036.98789276083
 30
0.0
 11
370.4979723200777
 21
-1022.98789276083
 31
0.0
  0
LINE
  5
6B7
102
{ACAD_REACTORS
102
}
330
4BA
100
AcDbEntity
  8
0
370
    20
100
AcDbLine
 10
350.4979723200777
 20
-1022.98789276083
 30
0.0
 11
350.4979723200777
 21
-1036.98789276083
 31
0.0
  0
LINE
  5
6B8
102
{ACAD_REACTORS
102
}
330
4BA
100
AcDbEntity
  8
0
370
    20
100
AcDbLine
 10
410.9979723200777
 20
-1036.98789276083
 30
0.0
 11
410.9979723200777
 21
-1022.98789276083
 31
0.0
  0
LINE
  5
6B9
102
{ACAD_REACTORS
102
}
330
4BA
100
AcDbEntity
  8
0
370
    20
100
AcDbLine
 10
451.497972320085
 20
-1036.987892760844
 30
0.0
 11
451.497972320085
 21
-1022.98789276083
 31
0.0
  0
LINE
  5
6BA
102
{ACAD_REACTORS
102
}
330
4BA
100
AcDbEntity
  8
0
370
    20
100
AcDbLine
 10
370.7479723200777
 20
-1027.98789276083
 30
0.0
 11
370.7479723200777
 21
-1037.487892760844
 31
0.0
  0
LINE
  5
6BB
102
{ACAD_REACTORS
102
}
330
4BA
100
AcDbEntity
  8
0
370
    20
100
AcDbLine
 10
390.7479723200777
 20
-1027.98789276083
 30
0.0
 11
390.7479723200777
 21
-1037.48789276083
 31
0.0
  0
LINE
  5
6BC
102
{ACAD_REACTORS
102
}
330
4BA
100
AcDbEntity
  8
0
370
    20
100
AcDbLine
 10
411.2479723200922
 20
-1027.98789276083
 30
0.0
 11
411.2479723200777
 21
-1037.48789276083
 31
0.0
  0
LINE
  5
6BD
102
{ACAD_REACTORS
102
}
330
4BA
100
AcDbEntity
  8
0
370
    20
100
AcDbLine
 10
431.2479723200777
 20
-1027.98789276083
 30
0.0
 11
431.2479723200777
 21
-1037.48789276083
 31
0.0
  0
LINE
  5
6BE
102
{ACAD_REACTORS
102
}
330
4BA
100
AcDbEntity
  8
0
370
    20
100
AcDbLine
 10
456.4979723200777
 20
-1029.987892760844
 30
0.0
 11
456.4979723200777
 21
-1034.987892760844
 31
0.0
  0
LINE
  5
6BF
102
{ACAD_REACTORS
102
}
330
4BA
100
AcDbEntity
  8
_-0
  6
DASHED2
 62
     1
100
AcDbLine
 10
121.6391675483428
 20
-1032.48789276083
 30
0.0
 11
471.6391675483283
 21
-1032.48789276083
 31
0.0
  0
LINE
  5
6C0
102
{ACAD_REACTORS
102
}
330
4BA
100
AcDbEntity
  8
_-0
  6
DASHED2
 62
     1
100
AcDbLine
 10
471.6391675483428
 20
-1342.342738409257
 30
0.0
 11
471.6391675483428
 21
-1032.48789276083
 31
0.0
  0
LINE
  5
6C1
102
{ACAD_REACTORS
102
}
330
4BA
100
AcDbEntity
  8
_-0
  6
DASHED2
 62
     1
100
AcDbLine
 10
121.6391675483574
 20
-1342.342738409272
 30
0.0
 11
121.6391675483574
 21
-1032.48789276083
 31
0.0
  0
LINE
  5
6C2
102
{ACAD_REACTORS
102
}
330
4BA
100
AcDbEntity
  8
_-0
  6
DASHED2
 62
     1
370
    20
100
AcDbLine
 10
471.6391675483428
 20
-1342.342738409272
 30
0.0
 11
121.6391675483574
 21
-1342.342738409272
 31
0.0
  0
ARC
  5
6C3
102
{ACAD_REACTORS
102
}
330
4BA
100
AcDbEntity
  8
_-0
100
AcDbCircle
 10
65.15348715622895
 20
-1342.342738409272
 30
0.0
 40
15.0
100
AcDbArc
 50
180.0
 51
270.0
  0
ARC
  5
6C4
102
{ACAD_REACTORS
102
}
330
4BA
100
AcDbEntity
  8
_-0
100
AcDbCircle
 10
528.1248479404858
 20
-1342.342738409272
 30
0.0
 40
15.0
100
AcDbArc
 50
270.0
 51
0.0
  0
LINE
  5
6C5
102
{ACAD_REACTORS
102
}
330
4BA
100
AcDbEntity
  8
_-0
  6
Continuous
100
AcDbLine
 10
65.15348715622895
 20
-1357.342738409272
 30
0.0
 11
528.1248479404858
 21
-1357.342738409243
 31
0.0
  0
ARC
  5
6C6
102
{ACAD_REACTORS
102
}
330
4BA
100
AcDbEntity
  8
_-0
100
AcDbCircle
 10
65.15348715622895
 20
-1047.48789276083
 30
0.0
 40
15.0
100
AcDbArc
 50
90.0
 51
180.0
  0
LINE
  5
6C7
102
{ACAD_REACTORS
102
}
330
4BA
100
AcDbEntity
  8
_-0
100
AcDbLine
 10
50.15348715622895
 20
-1047.48789276083
 30
0.0
 11
50.15348715622895
 21
-1342.342738409272
 31
0.0
  0
ARC
  5
6C8
102
{ACAD_REACTORS
102
}
330
4BA
100
AcDbEntity
  8
_-0
100
AcDbCircle
 10
528.1248479404858
 20
-1047.48789276083
 30
0.0
 40
15.0
100
AcDbArc
 50
0.0
 51
90.0
  0
LINE
  5
6C9
102
{ACAD_REACTORS
102
}
330
4BA
100
AcDbEntity
  8
_-0
100
AcDbLine
 10
543.1248479404858
 20
-1047.48789276083
 30
0.0
 11
543.1248479404858
 21
-1342.342738409272
 31
0.0
  0
LINE
  5
6CA
102
{ACAD_REACTORS
102
}
330
4BA
100
AcDbEntity
  8
_-0
  6
Continuous
100
AcDbLine
 10
471.6391675483428
 20
-1032.48789276083
 30
0.0
 11
528.1248479404858
 21
-1032.48789276083
 31
0.0
  0
ARC
  5
6CB
102
{ACAD_REACTORS
102
}
330
4BA
100
AcDbEntity
  8
_-0
370
    20
100
AcDbCircle
 10
451.4836731269352
 20
-1022.48789276083
 30
0.0
 40
15.0
100
AcDbArc
 50
21.80140948627698
 51
90.0
  0
LINE
  5
6CC
102
{ACAD_REACTORS
102
}
330
4BA
100
AcDbEntity
  8
_-0
370
    20
100
AcDbLine
 10
461.6391675483355
 20
-1007.48789276083
 30
0.0
 11
471.6391675483501
 21
-1032.48789276083
 31
0.0
  0
LINE
  5
6CD
102
{ACAD_REACTORS
102
}
330
4BA
100
AcDbEntity
  8
_-0
  6
Continuous
100
AcDbLine
 10
65.15348715622895
 20
-1032.48789276083
 30
0.0
 11
121.6391675483574
 21
-1032.48789276083
 31
0.0
  0
LINE
  5
6CE
102
{ACAD_REACTORS
102
}
330
4BA
100
AcDbEntity
  8
_-0
370
    20
100
AcDbLine
 10
121.6391675483646
 20
-1032.487892760801
 30
0.0
 11
131.6391675483501
 21
-1007.487892760801
 31
0.0
  0
ARC
  5
6CF
102
{ACAD_REACTORS
102
}
330
4BA
100
AcDbEntity
  8
_-0
370
    20
100
AcDbCircle
 10
141.794661969765
 20
-1022.487892760801
 30
0.0
 40
15.0
100
AcDbArc
 50
90.0
 51
158.198590513723
  0
LINE
  5
6D0
102
{ACAD_REACTORS
102
}
330
4BA
100
AcDbEntity
  8
_-0
  6
Continuous
370
    20
100
AcDbLine
 10
131.6391675483501
 20
-1007.487892760844
 30
0.0
 11
461.639167548321
 21
-1007.48789276083
 31
0.0
  0
LINE
  5
6D1
102
{ACAD_REACTORS
102
}
330
4BA
100
AcDbEntity
  8
0
370
    20
100
AcDbLine
 10
551.6391675483355
 20
-1382.382032405767
 30
0.0
 11
551.6391675483355
 21
-1412.382032405767
 31
0.0
  0
LINE
  5
6D2
102
{ACAD_REACTORS
102
}
330
4BA
100
AcDbEntity
  8
0
370
    20
100
AcDbLine
 10
531.8391675483326
 20
-1392.882032405767
 30
0.0
 11
531.8391675483253
 21
-1401.882032405767
 31
0.0
  0
LINE
  5
6D3
102
{ACAD_REACTORS
102
}
330
4BA
100
AcDbEntity
  8
2
  6
Continuous
 62
     7
100
AcDbLine
 10
309.6391675483355
 20
-1432.342738409272
 30
0.0
 11
309.6391675483355
 21
-1370.342738409272
 31
0.0
  0
LINE
  5
6D4
102
{ACAD_REACTORS
102
}
330
4BA
100
AcDbEntity
  8
2
  6
Continuous
 62
     7
100
AcDbLine
 10
283.6391675483355
 20
-1370.342738409272
 30
0.0
 11
283.6391675483355
 21
-1432.342738409272
 31
0.0
  0
LINE
  5
6D5
102
{ACAD_REACTORS
102
}
330
4BA
100
AcDbEntity
  8
2
  6
CENTER
 62
     2
100
AcDbLine
 10
296.6391675483355
 20
-1333.736715423169
 30
0.0
 11
296.6391675483355
 21
-1457.041193409277
 31
0.0
  0
LINE
  5
6D6
102
{ACAD_REACTORS
102
}
330
4BA
100
AcDbEntity
  8
2
  6
Continuous
 62
     7
100
AcDbLine
 10
285.6391675483355
 20
-1432.342738409272
 30
0.0
 11
285.6391675483355
 21
-1448.342738409272
 31
0.0
  0
LINE
  5
6D7
102
{ACAD_REACTORS
102
}
330
4BA
100
AcDbEntity
  8
2
  6
Continuous
 62
     7
100
AcDbLine
 10
307.6391675483355
 20
-1448.342738409272
 30
0.0
 11
307.6391675483355
 21
-1432.342738409272
 31
0.0
  0
LINE
  5
6D8
102
{ACAD_REACTORS
102
}
330
4BA
100
AcDbEntity
  8
2
  6
Continuous
 62
     7
100
AcDbLine
 10
283.6391675483355
 20
-1432.342738409272
 30
0.0
 11
285.6391675483355
 21
-1432.342738409272
 31
0.0
  0
LINE
  5
6D9
102
{ACAD_REACTORS
102
}
330
4BA
100
AcDbEntity
  8
2
  6
Continuous
 62
     7
100
AcDbLine
 10
307.6391675483355
 20
-1432.342738409272
 30
0.0
 11
309.6391675483355
 21
-1432.342738409272
 31
0.0
  0
LINE
  5
6DA
102
{ACAD_REACTORS
102
}
330
4BA
100
AcDbEntity
  8
2
  6
Continuous
 62
     7
100
AcDbLine
 10
304.6391675483355
 20
-1449.896944409273
 30
0.0
 11
288.6391675483355
 21
-1449.896944409273
 31
0.0
  0
LINE
  5
6DB
102
{ACAD_REACTORS
102
}
330
4BA
100
AcDbEntity
  8
2
  6
Continuous
 62
     7
100
AcDbLine
 10
288.6391675483355
 20
-1451.342738409272
 30
0.0
 11
304.6391675483355
 21
-1451.342738409272
 31
0.0
  0
ARC
  5
6DC
102
{ACAD_REACTORS
102
}
330
4BA
100
AcDbEntity
  8
2
  6
Continuous
 62
     7
100
AcDbCircle
 10
288.6391675483355
 20
-1446.896944409273
 30
0.0
 40
3.0
100
AcDbArc
 50
180.0
 51
270.0
  0
ARC
  5
6DD
102
{ACAD_REACTORS
102
}
330
4BA
100
AcDbEntity
  8
2
  6
Continuous
 62
     7
100
AcDbCircle
 10
288.6391675483355
 20
-1448.342738409272
 30
0.0
 40
3.0
100
AcDbArc
 50
180.0
 51
270.0
  0
ARC
  5
6DE
102
{ACAD_REACTORS
102
}
330
4BA
100
AcDbEntity
  8
2
  6
Continuous
 62
     7
100
AcDbCircle
 10
304.6391675483355
 20
-1446.896944409273
 30
0.0
 40
3.0
100
AcDbArc
 50
270.0
 51
0.0
  0
ARC
  5
6DF
102
{ACAD_REACTORS
102
}
330
4BA
100
AcDbEntity
  8
2
  6
Continuous
 62
     7
100
AcDbCircle
 10
304.6391675483355
 20
-1448.342738409272
 30
0.0
 40
3.0
100
AcDbArc
 50
270.0
 51
0.0
  0
ARC
  5
6E0
102
{ACAD_REACTORS
102
}
330
4BA
100
AcDbEntity
  8
0
370
    20
100
AcDbCircle
 10
219.7391675483268
 20
-1401.882032405767
 30
0.0
 40
4.5
100
AcDbArc
 50
180.0
 51
0.0
  0
ARC
  5
6E1
102
{ACAD_REACTORS
102
}
330
4BA
100
AcDbEntity
  8
0
370
    20
100
AcDbCircle
 10
219.7391675483341
 20
-1392.882032405767
 30
0.0
 40
4.5
100
AcDbArc
 50
0.0
 51
180.0
  0
LINE
  5
6E2
102
{ACAD_REACTORS
102
}
330
4BA
100
AcDbEntity
  8
0
370
    20
100
AcDbLine
 10
276.6391675483355
 20
-1410.382032405767
 30
0.0
 11
41.63916754833554
 21
-1410.382032405767
 31
0.0
  0
LINE
  5
6E3
102
{ACAD_REACTORS
102
}
330
4BA
100
AcDbEntity
  8
0
370
    20
100
AcDbLine
 10
283.6391675483355
 20
-1412.382032405767
 30
0.0
 11
41.63916754833554
 21
-1412.382032405767
 31
0.0
  0
LINE
  5
6E4
102
{ACAD_REACTORS
102
}
330
4BA
100
AcDbEntity
  8
0
370
    20
100
AcDbLine
 10
215.2391675483268
 20
-1401.882032405767
 30
0.0
 11
215.2391675483341
 21
-1392.882032405767
 31
0.0
  0
LINE
  5
6E5
102
{ACAD_REACTORS
102
}
330
4BA
100
AcDbEntity
  8
0
370
    20
100
AcDbLine
 10
41.63916754833554
 20
-1412.382032405767
 30
0.0
 11
41.63916754833554
 21
-1382.382032405767
 31
0.0
  0
LINE
  5
6E6
102
{ACAD_REACTORS
102
}
330
4BA
100
AcDbEntity
  8
_-0
  6
CENTER1
 62
     4
370
    20
100
AcDbLine
 10
65.93916754833117
 20
-1382.382032405767
 30
0.0
 11
65.93916754833117
 21
-1410.382032405767
 31
0.0
  0
ARC
  5
6E7
102
{ACAD_REACTORS
102
}
330
4BA
100
AcDbEntity
  8
0
370
    20
100
AcDbCircle
 10
65.93916754833117
 20
-1392.882032405767
 30
0.0
 40
4.5
100
AcDbArc
 50
0.0
 51
180.0
  0
ARC
  5
6E8
102
{ACAD_REACTORS
102
}
330
4BA
100
AcDbEntity
  8
0
370
    20
100
AcDbCircle
 10
65.9391675483239
 20
-1401.882032405767
 30
0.0
 40
4.5
100
AcDbArc
 50
180.0
 51
0.0
  0
LINE
  5
6E9
102
{ACAD_REACTORS
102
}
330
4BA
100
AcDbEntity
  8
_-0
  6
CENTER1
 62
     4
370
    20
100
AcDbLine
 10
65.93916754833117
 20
-1382.382032405767
 30
0.0
 11
65.93916754833117
 21
-1410.382032405767
 31
0.0
  0
LINE
  5
6EA
102
{ACAD_REACTORS
102
}
330
4BA
100
AcDbEntity
  8
0
370
    20
100
AcDbLine
 10
61.43916754832389
 20
-1401.882032405767
 30
0.0
 11
61.43916754833117
 21
-1392.882032405767
 31
0.0
  0
LINE
  5
6EB
102
{ACAD_REACTORS
102
}
330
4BA
100
AcDbEntity
  8
0
370
    20
100
AcDbLine
 10
70.43916754833117
 20
-1392.882032405767
 30
0.0
 11
70.4391675483239
 21
-1401.882032405767
 31
0.0
  0
LINE
  5
6EC
102
{ACAD_REACTORS
102
}
330
4BA
100
AcDbEntity
  8
_-0
  6
CENTER1
 62
     4
370
    20
100
AcDbLine
 10
527.3391675483326
 20
-1382.382032405767
 30
0.0
 11
527.3391675483326
 21
-1410.382032405767
 31
0.0
  0
LINE
  5
6ED
102
{ACAD_REACTORS
102
}
330
4BA
100
AcDbEntity
  8
0
370
    20
100
AcDbLine
 10
522.8391675483253
 20
-1401.882032405767
 30
0.0
 11
522.8391675483326
 21
-1392.882032405767
 31
0.0
  0
ARC
  5
6EE
102
{ACAD_REACTORS
102
}
330
4BA
100
AcDbEntity
  8
2
  6
Continuous
 62
     7
100
AcDbCircle
 10
282.9183835483309
 20
-1346.342738409272
 30
0.0
 40
4.0
100
AcDbArc
 50
90.0
 51
178.4335769996999
  0
LINE
  5
6EF
102
{ACAD_REACTORS
102
}
330
4BA
100
AcDbEntity
  8
2
  6
Continuous
 62
     7
100
AcDbLine
 10
310.3599515483329
 20
-1342.342738409272
 30
0.0
 11
282.9183835483382
 21
-1342.342738409272
 31
0.0
  0
LINE
  5
6F0
102
{ACAD_REACTORS
102
}
330
4BA
100
AcDbEntity
  8
2
  6
Continuous
 62
     7
100
AcDbLine
 10
310.3599515483329
 20
-1346.342738409272
 30
0.0
 11
282.9183835483382
 21
-1346.342738409272
 31
0.0
  0
LINE
  5
6F1
102
{ACAD_REACTORS
102
}
330
4BA
100
AcDbEntity
  8
2
  6
Continuous
 62
     7
100
AcDbLine
 10
308.6391675483355
 20
-1342.342738409272
 30
0.0
 11
310.3599515483329
 21
-1342.342738409272
 31
0.0
  0
LINE
  5
6F2
102
{ACAD_REACTORS
102
}
330
4BA
100
AcDbEntity
  8
2
  6
Continuous
 62
     7
100
AcDbLine
 10
308.6391675483355
 20
-1346.342738409272
 30
0.0
 11
310.3599515483329
 21
-1346.342738409272
 31
0.0
  0
ARC
  5
6F3
102
{ACAD_REACTORS
102
}
330
4BA
100
AcDbEntity
  8
2
  6
Continuous
 62
     7
100
AcDbCircle
 10
310.3599515483329
 20
-1346.342738409272
 30
0.0
 40
4.0
100
AcDbArc
 50
1.566423000300139
 51
90.0
  0
LINE
  5
6F4
102
{ACAD_REACTORS
102
}
330
4BA
100
AcDbEntity
  8
0
  6
DASHED
 62
     1
370
    20
100
AcDbLine
 10
284.6391675483355
 20
-1346.342738409272
 30
0.0
 11
308.6391675483355
 21
-1346.342738409272
 31
0.0
  0
LINE
  5
6F5
102
{ACAD_REACTORS
102
}
330
4BA
100
AcDbEntity
  8
2
  6
CENTER
 62
     2
100
AcDbLine
 10
305.6391675483355
 20
-1338.572938409277
 30
0.0
 11
305.6391675483355
 21
-1329.853981409273
 31
0.0
  0
LINE
  5
6F6
102
{ACAD_REACTORS
102
}
330
4BA
100
AcDbEntity
  8
2
  6
CENTER
 62
     2
100
AcDbLine
 10
310.0654565483383
 20
-1334.342738409272
 30
0.0
 11
301.1612685483378
 21
-1334.342738409272
 31
0.0
  0
CIRCLE
  5
6F7
102
{ACAD_REACTORS
102
}
330
4BA
100
AcDbEntity
  8
2
  6
Continuous
 62
     7
100
AcDbCircle
 10
305.6391675483355
 20
-1334.342738409272
 30
0.0
 40
2.6
  0
ARC
  5
6F8
102
{ACAD_REACTORS
102
}
330
4BA
100
AcDbEntity
  8
2
  6
Continuous
 62
     7
100
AcDbCircle
 10
306.6391675483355
 20
-1324.342738409272
 30
0.0
 40
5.0
100
AcDbArc
 50
0.0
 51
90.0
  0
CIRCLE
  5
6F9
102
{ACAD_REACTORS
102
}
330
4BA
100
AcDbEntity
  8
2
  6
Continuous
 62
     7
100
AcDbCircle
 10
296.6391675483355
 20
-1324.342738409272
 30
0.0
 40
2.6
  0
LINE
  5
6FA
102
{ACAD_REACTORS
102
}
330
4BA
100
AcDbEntity
  8
2
  6
Continuous
 62
     7
100
AcDbLine
 10
311.6391675483355
 20
-1324.342738409272
 30
0.0
 11
311.6391675483355
 21
-1337.342738409272
 31
0.0
  0
LINE
  5
6FB
102
{ACAD_REACTORS
102
}
330
4BA
100
AcDbEntity
  8
2
  6
Continuous
 62
     7
100
AcDbLine
 10
308.8613895483395
 20
-1342.342738409272
 30
0.0
 11
311.6391675483355
 21
-1337.342738409272
 31
0.0
  0
LINE
  5
6FC
102
{ACAD_REACTORS
102
}
330
4BA
100
AcDbEntity
  8
2
  6
CENTER
 62
     2
100
AcDbLine
 10
291.8781785483407
 20
-1334.342738409272
 30
0.0
 11
283.6252535483327
 21
-1334.342738409272
 31
0.0
  0
LINE
  5
6FD
102
{ACAD_REACTORS
102
}
330
4BA
100
AcDbEntity
  8
2
  6
CENTER
 62
     2
100
AcDbLine
 10
287.6391675483355
 20
-1338.88884240928
 30
0.0
 11
287.6391675483355
 21
-1330.106705409278
 31
0.0
  0
CIRCLE
  5
6FE
102
{ACAD_REACTORS
102
}
330
4BA
100
AcDbEntity
  8
2
  6
Continuous
 62
     7
100
AcDbCircle
 10
287.6391675483355
 20
-1334.342738409272
 30
0.0
 40
2.6
  0
ARC
  5
6FF
102
{ACAD_REACTORS
102
}
330
4BA
100
AcDbEntity
  8
2
  6
Continuous
 62
     7
100
AcDbCircle
 10
286.6391675483355
 20
-1324.342738409272
 30
0.0
 40
5.0
100
AcDbArc
 50
90.0
 51
180.0
  0
LINE
  5
700
102
{ACAD_REACTORS
102
}
330
4BA
100
AcDbEntity
  8
2
  6
Continuous
 62
     7
100
AcDbLine
 10
281.6391675483355
 20
-1324.342738409272
 30
0.0
 11
281.6391675483355
 21
-1337.342738409272
 31
0.0
  0
LINE
  5
701
102
{ACAD_REACTORS
102
}
330
4BA
100
AcDbEntity
  8
2
  6
Continuous
 62
     7
100
AcDbLine
 10
284.4169455483388
 20
-1342.342738409272
 30
0.0
 11
281.6391675483355
 21
-1337.342738409272
 31
0.0
  0
LINE
  5
702
102
{ACAD_REACTORS
102
}
330
4BA
100
AcDbEntity
  8
2
  6
CENTER
 62
     2
100
AcDbLine
 10
301.1612685483378
 20
-1324.342738409272
 30
0.0
 11
291.9413285483352
 21
-1324.342738409272
 31
0.0
  0
LINE
  5
703
102
{ACAD_REACTORS
102
}
330
4BA
100
AcDbEntity
  8
2
  6
Continuous
 62
     7
100
AcDbLine
 10
284.6391675483355
 20
-1341.342738409272
 30
0.0
 11
308.6391675483355
 21
-1341.342738409272
 31
0.0
  0
LINE
  5
704
102
{ACAD_REACTORS
102
}
330
4BA
100
AcDbEntity
  8
2
  6
Continuous
 62
     7
100
AcDbLine
 10
306.6391675483355
 20
-1319.342738409272
 30
0.0
 11
286.6391675483355
 21
-1319.342738409272
 31
0.0
  0
LINE
  5
705
102
{ACAD_REACTORS
102
}
330
4BA
100
AcDbEntity
  8
0
370
    20
100
AcDbLine
 10
378.039167548337
 20
-1392.882032405767
 30
0.0
 11
378.0391675483297
 21
-1401.882032405767
 31
0.0
  0
LINE
  5
706
102
{ACAD_REACTORS
102
}
330
4BA
100
AcDbEntity
  8
0
370
    20
100
AcDbLine
 10
369.0391675483297
 20
-1401.882032405767
 30
0.0
 11
369.039167548337
 21
-1392.882032405767
 31
0.0
  0
LINE
  5
707
102
{ACAD_REACTORS
102
}
330
4BA
100
AcDbEntity
  8
_-0
  6
CENTER1
 62
     4
370
    20
100
AcDbLine
 10
373.539167548337
 20
-1382.382032405767
 30
0.0
 11
373.539167548337
 21
-1410.382032405767
 31
0.0
  0
ARC
  5
708
102
{ACAD_REACTORS
102
}
330
4BA
100
AcDbEntity
  8
0
370
    20
100
AcDbCircle
 10
373.539167548337
 20
-1392.882032405767
 30
0.0
 40
4.5
100
AcDbArc
 50
0.0
 51
180.0
  0
ARC
  5
709
102
{ACAD_REACTORS
102
}
330
4BA
100
AcDbEntity
  8
0
370
    20
100
AcDbCircle
 10
373.5391675483297
 20
-1401.882032405767
 30
0.0
 40
4.5
100
AcDbArc
 50
180.0
 51
0.0
  0
LINE
  5
70A
102
{ACAD_REACTORS
102
}
330
4BA
100
AcDbEntity
  8
_-0
  6
CENTER1
 62
     4
370
    20
100
AcDbLine
 10
219.7391675483341
 20
-1382.382032405767
 30
0.0
 11
219.7391675483341
 21
-1410.382032405767
 31
0.0
  0
LINE
  5
70B
102
{ACAD_REACTORS
102
}
330
4BA
100
AcDbEntity
  8
0
370
    20
100
AcDbLine
 10
224.2391675483341
 20
-1392.882032405767
 30
0.0
 11
224.2391675483268
 21
-1401.882032405767
 31
0.0
  0
LINE
  5
70C
102
{ACAD_REACTORS
102
}
330
4BA
100
AcDbEntity
  8
_-0
  6
CENTER1
 62
     4
370
    20
100
AcDbLine
 10
219.7391675483341
 20
-1382.382032405767
 30
0.0
 11
219.7391675483341
 21
-1410.382032405767
 31
0.0
  0
LINE
  5
70D
102
{ACAD_REACTORS
102
}
330
4BA
100
AcDbEntity
  8
2
  6
Continuous
 62
     7
100
AcDbLine
 10
303.6391675483355
 20
-1370.342738409272
 30
0.0
 11
289.6391675483355
 21
-1370.342738409272
 31
0.0
  0
LINE
  5
70E
102
{ACAD_REACTORS
102
}
330
4BA
100
AcDbEntity
  8
2
  6
Continuous
 62
     7
100
AcDbLine
 10
289.6391675483355
 20
-1371.342738409272
 30
0.0
 11
285.7391675483341
 21
-1371.342738409272
 31
0.0
  0
LINE
  5
70F
102
{ACAD_REACTORS
102
}
330
4BA
100
AcDbEntity
  8
2
  6
Continuous
 62
     7
100
AcDbLine
 10
285.6391675483355
 20
-1370.342738409272
 30
0.0
 11
283.6391675483355
 21
-1370.342738409272
 31
0.0
  0
LINE
  5
710
102
{ACAD_REACTORS
102
}
330
4BA
100
AcDbEntity
  8
2
  6
Continuous
 62
     7
100
AcDbLine
 10
307.539167548337
 20
-1371.342738409272
 30
0.0
 11
303.6391675483355
 21
-1371.342738409272
 31
0.0
  0
LINE
  5
711
102
{ACAD_REACTORS
102
}
330
4BA
100
AcDbEntity
  8
2
  6
Continuous
 62
     7
100
AcDbLine
 10
309.6391675483355
 20
-1370.342738409272
 30
0.0
 11
307.6391675483355
 21
-1370.342738409272
 31
0.0
  0
INSERT
  5
712
102
{ACAD_REACTORS
102
}
330
4BA
100
AcDbEntity
  8
1
  6
Continuous
 62
     7
100
AcDbBlockReference
  2
BLK42
 10
296.6391675483355
 20
-1390.256164409271
 30
0.0
 50
270.0
  0
LINE
  5
762
102
{ACAD_REACTORS
102
}
330
4BA
100
AcDbEntity
  8
2
  6
Continuous
 62
     7
100
AcDbLine
 10
289.6391675483355
 20
-1381.342738409272
 30
0.0
 11
283.6391675483355
 21
-1381.342738409272
 31
0.0
  0
LINE
  5
763
102
{ACAD_REACTORS
102
}
330
4BA
100
AcDbEntity
  8
2
  6
Continuous
 62
     7
100
AcDbLine
 10
282.8391675483326
 20
-1374.842738409272
 30
0.0
 11
282.8391675483326
 21
-1379.842738409272
 31
0.0
  0
LINE
  5
764
102
{ACAD_REACTORS
102
}
330
4BA
100
AcDbEntity
  8
2
  6
Continuous
 62
     7
100
AcDbLine
 10
283.6391675483355
 20
-1374.842738409272
 30
0.0
 11
282.8391675483326
 21
-1374.842738409272
 31
0.0
  0
LINE
  5
765
102
{ACAD_REACTORS
102
}
330
4BA
100
AcDbEntity
  8
2
  6
Continuous
 62
     7
100
AcDbLine
 10
285.7391675483341
 20
-1375.342738409272
 30
0.0
 11
285.6391675483355
 21
-1375.342738409272
 31
0.0
  0
LINE
  5
766
102
{ACAD_REACTORS
102
}
330
4BA
100
AcDbEntity
  8
2
  6
Continuous
 62
     7
100
AcDbLine
 10
285.7391675483341
 20
-1379.342738409272
 30
0.0
 11
285.6391675483355
 21
-1379.342738409272
 31
0.0
  0
LINE
  5
767
102
{ACAD_REACTORS
102
}
330
4BA
100
AcDbEntity
  8
2
  6
Continuous
 62
     7
100
AcDbLine
 10
282.8391675483326
 20
-1379.842738409272
 30
0.0
 11
283.6391675483355
 21
-1379.842738409272
 31
0.0
  0
LINE
  5
768
102
{ACAD_REACTORS
102
}
330
4BA
100
AcDbEntity
  8
2
  6
Continuous
 62
     7
100
AcDbLine
 10
289.6391675483355
 20
-1375.342738409272
 30
0.0
 11
287.7391675483341
 21
-1375.342738409272
 31
0.0
  0
LINE
  5
769
102
{ACAD_REACTORS
102
}
330
4BA
100
AcDbEntity
  8
2
  6
Continuous
 62
     7
100
AcDbLine
 10
289.6391675483355
 20
-1379.342738409272
 30
0.0
 11
287.7391675483341
 21
-1379.342738409272
 31
0.0
  0
LINE
  5
76A
102
{ACAD_REACTORS
102
}
330
4BA
100
AcDbEntity
  8
2
  6
Continuous
 62
     7
100
AcDbLine
 10
281.5502885483329
 20
-1396.285951409278
 30
0.0
 11
283.6391675483355
 21
-1396.344299409269
 31
0.0
  0
LINE
  5
76B
102
{ACAD_REACTORS
102
}
330
4BA
100
AcDbEntity
  8
2
  6
Continuous
 62
     7
100
AcDbLine
 10
281.6619755483371
 20
-1392.287510409275
 30
0.0
 11
283.6391675483355
 21
-1392.342738409272
 31
0.0
  0
ARC
  5
76C
102
{ACAD_REACTORS
102
}
330
4BA
100
AcDbEntity
  8
2
  6
Continuous
 62
     7
100
AcDbCircle
 10
281.6619755483371
 20
-1392.287510409275
 30
0.0
 40
4.0
100
AcDbArc
 50
178.4335769996999
 51
268.3999999997586
  0
LINE
  5
76D
102
{ACAD_REACTORS
102
}
330
4BA
100
AcDbEntity
  8
2
  6
Continuous
 62
     7
100
AcDbLine
 10
305.539167548337
 20
-1379.342738409272
 30
0.0
 11
303.6391675483355
 21
-1379.342738409272
 31
0.0
  0
LINE
  5
76E
102
{ACAD_REACTORS
102
}
330
4BA
100
AcDbEntity
  8
2
  6
Continuous
 62
     7
100
AcDbLine
 10
305.539167548337
 20
-1375.342738409272
 30
0.0
 11
303.6391675483355
 21
-1375.342738409272
 31
0.0
  0
LINE
  5
76F
102
{ACAD_REACTORS
102
}
330
4BA
100
AcDbEntity
  8
2
  6
Continuous
 62
     7
100
AcDbLine
 10
309.6391675483355
 20
-1381.342738409272
 30
0.0
 11
303.6391675483355
 21
-1381.342738409272
 31
0.0
  0
ARC
  5
770
102
{ACAD_REACTORS
102
}
330
4BA
100
AcDbEntity
  8
2
  6
Continuous
 62
     7
100
AcDbCircle
 10
307.0141675483355
 20
-1377.342738409272
 30
0.0
 40
3.625
100
AcDbArc
 50
316.397181000265
 51
43.60281899973501
  0
LINE
  5
771
102
{ACAD_REACTORS
102
}
330
4BA
100
AcDbEntity
  8
2
  6
Continuous
 62
     7
100
AcDbLine
 10
307.6391675483355
 20
-1375.342738409272
 30
0.0
 11
307.539167548337
 21
-1375.342738409272
 31
0.0
  0
LINE
  5
772
102
{ACAD_REACTORS
102
}
330
4BA
100
AcDbEntity
  8
2
  6
Continuous
 62
     7
100
AcDbLine
 10
307.6391675483355
 20
-1379.342738409272
 30
0.0
 11
307.539167548337
 21
-1379.342738409272
 31
0.0
  0
LINE
  5
773
102
{ACAD_REACTORS
102
}
330
4BA
100
AcDbEntity
  8
2
  6
Continuous
 62
     7
100
AcDbLine
 10
311.616359548334
 20
-1392.287510409275
 30
0.0
 11
309.6391675483355
 21
-1392.342738409272
 31
0.0
  0
LINE
  5
774
102
{ACAD_REACTORS
102
}
330
4BA
100
AcDbEntity
  8
2
  6
Continuous
 62
     7
100
AcDbLine
 10
311.7280455483378
 20
-1396.285951409278
 30
0.0
 11
309.6391675483355
 21
-1396.344299409269
 31
0.0
  0
LINE
  5
775
102
{ACAD_REACTORS
102
}
330
4BA
100
AcDbEntity
  8
2
  6
CENTER
 62
     2
100
AcDbLine
 10
313.1007015483374
 20
-1377.342738409272
 30
0.0
 11
280.0978855483372
 21
-1377.342738409272
 31
0.0
  0
ARC
  5
776
102
{ACAD_REACTORS
102
}
330
4BA
100
AcDbEntity
  8
2
  6
Continuous
 62
     7
100
AcDbCircle
 10
311.616359548334
 20
-1392.287510409275
 30
0.0
 40
4.0
100
AcDbArc
 50
271.6000000002414
 51
1.609932000187682
  0
LINE
  5
777
102
{ACAD_REACTORS
102
}
330
4BA
100
AcDbEntity
  8
0
370
    20
100
AcDbLine
 10
276.6391675483355
 20
-1410.382032405767
 30
0.0
 11
276.6391675483355
 21
-1412.382032405767
 31
0.0
  0
LINE
  5
778
102
{ACAD_REACTORS
102
}
330
4BA
100
AcDbEntity
  8
0
370
    20
100
AcDbLine
 10
316.6391675483355
 20
-1410.382032405767
 30
0.0
 11
316.6391675483355
 21
-1412.382032405767
 31
0.0
  0
LINE
  5
779
102
{ACAD_REACTORS
102
}
330
4BA
100
AcDbEntity
  8
0
  6
DASHED
 62
     1
370
    20
100
AcDbLine
 10
283.6391675483355
 20
-1412.382032405767
 30
0.0
 11
309.6391675483355
 21
-1412.382032405767
 31
0.0
  0
LINE
  5
77A
102
{ACAD_REACTORS
102
}
330
4BA
100
AcDbEntity
  8
2
  6
Continuous
 62
     7
100
AcDbLine
 10
289.6391675483355
 20
-1370.342738409272
 30
0.0
 11
289.6391675483355
 21
-1381.342738409272
 31
0.0
  0
LINE
  5
77B
102
{ACAD_REACTORS
102
}
330
4BA
100
AcDbEntity
  8
2
  6
Continuous
 62
     7
100
AcDbLine
 10
303.6391675483355
 20
-1381.342738409272
 30
0.0
 11
303.6391675483355
 21
-1370.342738409272
 31
0.0
  0
LINE
  5
77C
102
{ACAD_REACTORS
102
}
330
4BA
100
AcDbEntity
  8
2
  6
Continuous
 62
     7
100
AcDbLine
 10
307.6391675483355
 20
-1370.342738409272
 30
0.0
 11
307.6391675483355
 21
-1381.342738409272
 31
0.0
  0
LINE
  5
77D
102
{ACAD_REACTORS
102
}
330
4BA
100
AcDbEntity
  8
2
  6
Continuous
 62
     7
100
AcDbLine
 10
305.539167548337
 20
-1381.342738409272
 30
0.0
 11
305.539167548337
 21
-1371.342738409272
 31
0.0
  0
LINE
  5
77E
102
{ACAD_REACTORS
102
}
330
4BA
100
AcDbEntity
  8
2
  6
Continuous
 62
     7
100
AcDbLine
 10
285.6391675483355
 20
-1381.342738409272
 30
0.0
 11
285.6391675483355
 21
-1370.342738409272
 31
0.0
  0
LINE
  5
77F
102
{ACAD_REACTORS
102
}
330
4BA
100
AcDbEntity
  8
2
  6
Continuous
 62
     7
100
AcDbLine
 10
307.539167548337
 20
-1371.342738409272
 30
0.0
 11
307.539167548337
 21
-1381.342738409272
 31
0.0
  0
LINE
  5
780
102
{ACAD_REACTORS
102
}
330
4BA
100
AcDbEntity
  8
2
  6
Continuous
 62
     7
100
AcDbLine
 10
285.7391675483341
 20
-1371.342738409272
 30
0.0
 11
285.7391675483341
 21
-1381.342738409272
 31
0.0
  0
LINE
  5
781
102
{ACAD_REACTORS
102
}
330
4BA
100
AcDbEntity
  8
2
  6
Continuous
 62
     7
100
AcDbLine
 10
287.7391675483341
 20
-1371.342738409272
 30
0.0
 11
287.7391675483341
 21
-1381.342738409272
 31
0.0
  0
LINE
  5
782
102
{ACAD_REACTORS
102
}
330
4BA
100
AcDbEntity
  8
2
  6
Continuous
 62
     7
100
AcDbLine
 10
308.6391675483355
 20
-1356.342738409272
 30
0.0
 11
306.6391675483355
 21
-1356.342738409272
 31
0.0
  0
LINE
  5
783
102
{ACAD_REACTORS
102
}
330
4BA
100
AcDbEntity
  8
2
  6
Continuous
 62
     7
100
AcDbLine
 10
306.6391675483355
 20
-1354.342738409272
 30
0.0
 11
305.1391675483355
 21
-1354.342738409272
 31
0.0
  0
LINE
  5
784
102
{ACAD_REACTORS
102
}
330
4BA
100
AcDbEntity
  8
2
  6
Continuous
 62
     7
100
AcDbLine
 10
304.6391675483355
 20
-1354.842738409272
 30
0.0
 11
304.6391675483355
 21
-1356.342738409272
 31
0.0
  0
ARC
  5
785
102
{ACAD_REACTORS
102
}
330
4BA
100
AcDbEntity
  8
2
  6
Continuous
 62
     7
100
AcDbCircle
 10
305.1391675483355
 20
-1354.842738409272
 30
0.0
 40
0.5
100
AcDbArc
 50
90.0
 51
180.0
  0
ARC
  5
786
102
{ACAD_REACTORS
102
}
330
4BA
100
AcDbEntity
  8
2
  6
Continuous
 62
     7
100
AcDbCircle
 10
288.1391675483355
 20
-1354.842738409272
 30
0.0
 40
0.5
100
AcDbArc
 50
0.0
 51
90.0
  0
LINE
  5
787
102
{ACAD_REACTORS
102
}
330
4BA
100
AcDbEntity
  8
2
  6
Continuous
 62
     7
100
AcDbLine
 10
288.6391675483355
 20
-1356.342738409272
 30
0.0
 11
288.6391675483355
 21
-1354.842738409272
 31
0.0
  0
LINE
  5
788
102
{ACAD_REACTORS
102
}
330
4BA
100
AcDbEntity
  8
2
  6
Continuous
 62
     7
100
AcDbLine
 10
286.6391675483355
 20
-1356.342738409272
 30
0.0
 11
284.6391675483355
 21
-1356.342738409272
 31
0.0
  0
LINE
  5
789
102
{ACAD_REACTORS
102
}
330
4BA
100
AcDbEntity
  8
2
  6
Continuous
 62
     7
100
AcDbLine
 10
288.1391675483355
 20
-1354.342738409272
 30
0.0
 11
286.6391675483355
 21
-1354.342738409272
 31
0.0
  0
LINE
  5
78A
102
{ACAD_REACTORS
102
}
330
4BA
100
AcDbEntity
  8
2
  6
Continuous
 62
     7
100
AcDbLine
 10
304.6391675483355
 20
-1356.342738409272
 30
0.0
 11
288.6391675483355
 21
-1356.342738409272
 31
0.0
  0
LINE
  5
78B
102
{ACAD_REACTORS
102
}
330
4BA
100
AcDbEntity
  8
_-0
  6
CENTER1
 62
     4
370
    20
100
AcDbLine
 10
296.6391675483355
 20
-1322.959135632227
 30
0.0
 11
296.6391675483355
 21
-1426.224754634088
 31
0.0
  0
LINE
  5
78C
102
{ACAD_REACTORS
102
}
330
4BA
100
AcDbEntity
  8
2
  6
Continuous
 62
     7
100
AcDbLine
 10
310.3599515483329
 20
-1346.342738409272
 30
0.0
 11
311.616359548334
 21
-1392.287510409275
 31
0.0
  0
LINE
  5
78D
102
{ACAD_REACTORS
102
}
330
4BA
100
AcDbEntity
  8
2
  6
Continuous
 62
     7
100
AcDbLine
 10
278.9198795483353
 20
-1346.233395409268
 30
0.0
 11
277.6634715483342
 21
-1392.178167409271
 31
0.0
  0
LINE
  5
78E
102
{ACAD_REACTORS
102
}
330
4BA
100
AcDbEntity
  8
2
  6
Continuous
 62
     7
100
AcDbLine
 10
282.9183835483382
 20
-1346.342738409272
 30
0.0
 11
281.6619755483371
 21
-1392.287510409275
 31
0.0
  0
LINE
  5
78F
102
{ACAD_REACTORS
102
}
330
4BA
100
AcDbEntity
  8
2
  6
Continuous
 62
     7
100
AcDbLine
 10
314.3584555483358
 20
-1346.233395409268
 30
0.0
 11
315.6147805483379
 21
-1392.175131409276
 31
0.0
  0
LINE
  5
790
102
{ACAD_REACTORS
102
}
330
4BA
100
AcDbEntity
  8
0
  6
CENTER1
 62
     4
370
    20
100
AcDbLine
 10
296.6391675483355
 20
-1372.42951017859
 30
0.0
 11
296.6391675483355
 21
-1300.276848208894
 31
0.0
  0
LINE
  5
791
102
{ACAD_REACTORS
102
}
330
4BA
100
AcDbEntity
  8
2
  6
CENTER
 62
     2
100
AcDbLine
 10
296.6391675483355
 20
-1305.798195409276
 30
0.0
 11
296.6391675483355
 21
-1356.768326558325
 31
0.0
  0
LINE
  5
792
102
{ACAD_REACTORS
102
}
330
4BA
100
AcDbEntity
  8
2
  6
Continuous
 62
     7
100
AcDbLine
 10
306.6391675483355
 20
-1356.342738409272
 30
0.0
 11
306.6391675483355
 21
-1341.342738409272
 31
0.0
  0
LINE
  5
793
102
{ACAD_REACTORS
102
}
330
4BA
100
AcDbEntity
  8
2
  6
Continuous
 62
     7
100
AcDbLine
 10
308.6391675483355
 20
-1341.342738409272
 30
0.0
 11
308.6391675483355
 21
-1356.342738409272
 31
0.0
  0
LINE
  5
794
102
{ACAD_REACTORS
102
}
330
4BA
100
AcDbEntity
  8
2
  6
Continuous
 62
     7
100
AcDbLine
 10
286.6391675483355
 20
-1356.342738409272
 30
0.0
 11
286.6391675483355
 21
-1341.342738409272
 31
0.0
  0
LINE
  5
795
102
{ACAD_REACTORS
102
}
330
4BA
100
AcDbEntity
  8
2
  6
Continuous
 62
     7
100
AcDbLine
 10
284.6391675483355
 20
-1356.342738409272
 30
0.0
 11
284.6391675483355
 21
-1341.342738409272
 31
0.0
  0
LINE
  5
796
102
{ACAD_REACTORS
102
}
330
4BA
100
AcDbEntity
  8
0
  6
CENTER1
 62
     4
370
    20
100
AcDbLine
 10
220.4391675483384
 20
-1338.342738409272
 30
0.0
 11
220.4391675483384
 21
-1306.342738409272
 31
0.0
  0
LINE
  5
797
102
{ACAD_REACTORS
102
}
330
4BA
100
AcDbEntity
  8
0
370
    20
100
AcDbLine
 10
224.9391675483384
 20
-1317.842738409272
 30
0.0
 11
224.9391675483312
 21
-1326.842738409272
 31
0.0
  0
ARC
  5
798
102
{ACAD_REACTORS
102
}
330
4BA
100
AcDbEntity
  8
0
370
    20
100
AcDbCircle
 10
209.6391675483428
 20
-1309.342738409272
 30
0.0
 40
3.0
100
AcDbArc
 50
90.0
 51
180.0
  0
ARC
  5
799
102
{ACAD_REACTORS
102
}
330
4BA
100
AcDbEntity
  8
0
370
    20
100
AcDbCircle
 10
209.6391675483428
 20
-1335.342738409272
 30
0.0
 40
3.0
100
AcDbArc
 50
180.0
 51
270.0
  0
LINE
  5
79A
102
{ACAD_REACTORS
102
}
330
4BA
100
AcDbEntity
  8
0
370
    20
100
AcDbLine
 10
206.6391675483428
 20
-1335.342738409272
 30
0.0
 11
206.6391675483428
 21
-1309.342738409272
 31
0.0
  0
LINE
  5
79B
102
{ACAD_REACTORS
102
}
330
4BA
100
AcDbEntity
  8
0
370
    20
100
AcDbLine
 10
215.9391675483312
 20
-1326.842738409272
 30
0.0
 11
215.9391675483384
 21
-1317.842738409272
 31
0.0
  0
LINE
  5
79C
102
{ACAD_REACTORS
102
}
330
4BA
100
AcDbEntity
  8
0
370
    20
100
AcDbLine
 10
209.6391675483428
 20
-1306.342738409272
 30
0.0
 11
383.6391675483283
 21
-1306.342738409272
 31
0.0
  0
LINE
  5
79D
102
{ACAD_REACTORS
102
}
330
4BA
100
AcDbEntity
  8
0
370
    20
100
AcDbLine
 10
209.6391675483428
 20
-1338.342738409272
 30
0.0
 11
383.6391675483283
 21
-1338.342738409272
 31
0.0
  0
LINE
  5
79E
102
{ACAD_REACTORS
102
}
330
4BA
100
AcDbEntity
  8
0
  6
CENTER1
 62
     4
370
    20
100
AcDbLine
 10
189.1889200249971
 20
-1322.342738409272
 30
0.0
 11
402.6383393504038
 21
-1322.342738409272
 31
0.0
  0
ARC
  5
79F
102
{ACAD_REACTORS
102
}
330
4BA
100
AcDbEntity
  8
0
370
    20
100
AcDbCircle
 10
220.4391675483384
 20
-1317.842738409272
 30
0.0
 40
4.5
100
AcDbArc
 50
0.0
 51
180.0
  0
ARC
  5
7A0
102
{ACAD_REACTORS
102
}
330
4BA
100
AcDbEntity
  8
0
370
    20
100
AcDbCircle
 10
220.4391675483312
 20
-1326.842738409272
 30
0.0
 40
4.5
100
AcDbArc
 50
180.0
 51
0.0
  0
ARC
  5
7A1
102
{ACAD_REACTORS
102
}
330
4BA
100
AcDbEntity
  8
0
370
    20
100
AcDbCircle
 10
372.8391675483326
 20
-1317.842738409272
 30
0.0
 40
4.5
100
AcDbArc
 50
0.0
 51
180.0
  0
ARC
  5
7A2
102
{ACAD_REACTORS
102
}
330
4BA
100
AcDbEntity
  8
0
370
    20
100
AcDbCircle
 10
372.8391675483253
 20
-1326.842738409272
 30
0.0
 40
4.5
100
AcDbArc
 50
180.0
 51
0.0
  0
LINE
  5
7A3
102
{ACAD_REACTORS
102
}
330
4BA
100
AcDbEntity
  8
0
  6
CENTER1
 62
     4
370
    20
100
AcDbLine
 10
372.8391675483326
 20
-1306.342738409272
 30
0.0
 11
372.8391675483326
 21
-1338.342738409272
 31
0.0
  0
LINE
  5
7A4
102
{ACAD_REACTORS
102
}
330
4BA
100
AcDbEntity
  8
0
370
    20
100
AcDbLine
 10
377.3391675483326
 20
-1317.842738409272
 30
0.0
 11
377.3391675483253
 21
-1326.842738409272
 31
0.0
  0
LINE
  5
7A5
102
{ACAD_REACTORS
102
}
330
4BA
100
AcDbEntity
  8
0
370
    20
100
AcDbLine
 10
368.3391675483253
 20
-1326.842738409272
 30
0.0
 11
368.3391675483326
 21
-1317.842738409272
 31
0.0
  0
ARC
  5
7A6
102
{ACAD_REACTORS
102
}
330
4BA
100
AcDbEntity
  8
0
370
    20
100
AcDbCircle
 10
383.6391675483283
 20
-1309.342738409272
 30
0.0
 40
3.0
100
AcDbArc
 50
0.0
 51
90.0
  0
ARC
  5
7A7
102
{ACAD_REACTORS
102
}
330
4BA
100
AcDbEntity
  8
0
370
    20
100
AcDbCircle
 10
383.6391675483283
 20
-1335.342738409272
 30
0.0
 40
3.0
100
AcDbArc
 50
270.0
 51
0.0
  0
LINE
  5
7A8
102
{ACAD_REACTORS
102
}
330
4BA
100
AcDbEntity
  8
0
370
    20
100
AcDbLine
 10
386.6391675483283
 20
-1309.342738409272
 30
0.0
 11
386.6391675483283
 21
-1335.342738409272
 31
0.0
  0
LINE
  5
7A9
102
{ACAD_REACTORS
102
}
330
4BA
100
AcDbEntity
  8
0
370
    20
100
AcDbLine
 10
41.63916754833554
 20
-1382.382032405767
 30
0.0
 11
551.6391675483355
 21
-1382.382032405767
 31
0.0
  0
LINE
  5
7AA
102
{ACAD_REACTORS
102
}
330
4BA
100
AcDbEntity
  8
_-0
  6
CENTER1
 62
     4
100
AcDbLine
 10
30.56455995425131
 20
-1397.382032405767
 30
0.0
 11
565.0766504601379
 21
-1397.382032405767
 31
0.0
  0
ARC
  5
7AB
102
{ACAD_REACTORS
102
}
330
4BA
100
AcDbEntity
  8
0
370
    20
100
AcDbCircle
 10
527.3391675483326
 20
-1392.882032405767
 30
0.0
 40
4.5
100
AcDbArc
 50
0.0
 51
180.0
  0
ARC
  5
7AC
102
{ACAD_REACTORS
102
}
330
4BA
100
AcDbEntity
  8
0
370
    20
100
AcDbCircle
 10
527.3391675483253
 20
-1401.882032405767
 30
0.0
 40
4.5
100
AcDbArc
 50
180.0
 51
0.0
  0
LINE
  5
7AD
102
{ACAD_REACTORS
102
}
330
4BA
100
AcDbEntity
  8
0
370
    20
100
AcDbLine
 10
551.6391675483355
 20
-1410.382032405767
 30
0.0
 11
316.6391675483355
 21
-1410.382032405767
 31
0.0
  0
LINE
  5
7AE
102
{ACAD_REACTORS
102
}
330
4BA
100
AcDbEntity
  8
0
100
AcDbLine
 10
551.6391675483355
 20
-1412.382032405767
 30
0.0
 11
309.6391675483355
 21
-1412.382032405767
 31
0.0
  0
LINE
  5
7AF
330
4BA
100
AcDbEntity
  8
0
370
    20
100
AcDbLine
 10
-181.8898429539586
 20
-920.5752169654734
 30
0.0
 11
-186.3642124059006
 21
-924.8807404141698
 31
0.0
  0
ARC
  5
7B0
330
4BA
100
AcDbEntity
  8
0
370
    20
100
AcDbCircle
 10
-164.9020276799311
 20
-938.2292287536111
 30
0.0
 40
24.5
100
AcDbArc
 50
46.10171856872449
 51
133.8982814312755
  0
DIMENSION
  5
7B1
330
4BA
100
AcDbEntity
  8
0
370
    20
100
AcDbDimension
  2
*D19
 10
-280.8499999999876
 20
510.9119160517439
 30
0.0
 11
-409.5054101589858
 21
552.9119160517439
 31
0.0
 70
    32
 71
     5
 42
50.0
  3
ASKSTANDARD2
100
AcDbAlignedDimension
 13
-230.8499999999876
 23
296.329700700473
 33
0.0
 14
-280.8499999999876
 24
307.3938150649192
 34
0.0
100
AcDbRotatedDimension
1001
ACAD
1000
DSTYLE
1002
{
1070
    40
1040
20.0
1070
    77
1070
     1
1070
    78
1070
     8
1070
   147
1040
1.0
1070
   176
1070
     7
1070
   177
1070
     7
1070
   178
1070
     7
1070
   179
1070
     1
1070
   271
1070
     1
1070
   272
1070
     1
1070
   288
1070
     0
1070
   289
1070
     3
1070
   340
1005
4D2
1070
   341
1005
53D
1070
   342
1005
53D
1002
}
  0
ARC
  5
7C0
330
4BA
100
AcDbEntity
  8
0
370
    20
100
AcDbCircle
 10
-192.2499999999964
 20
289.3746585918852
 30
0.0
 40
24.5
100
AcDbArc
 50
46.10171856872449
 51
133.8982814312755
  0
LINE
  5
7C1
330
4BA
100
AcDbEntity
  8
0
370
    20
100
AcDbLine
 10
-209.2378152740239
 20
307.028670380023
 30
0.0
 11
-213.7121847259659
 21
302.7231469313265
 31
0.0
  0
ARC
  5
7C2
330
4BA
100
AcDbEntity
  8
0
370
    20
100
AcDbCircle
 10
-269.1499999999905
 20
289.3746585918852
 30
0.0
 40
24.5
100
AcDbArc
 50
46.10171856872449
 51
118.5255770801936
  0
LINE
  5
7C3
330
4BA
100
AcDbEntity
  8
0
370
    20
100
AcDbLine
 10
-252.162184725963
 20
307.0286703800084
 30
0.0
 11
-247.687815274021
 21
302.7231469313265
 31
0.0
  0
ARC
  5
7C4
330
4BA
100
AcDbEntity
  8
0
370
    20
100
AcDbCircle
 10
-230.6999999999935
 20
320.3771587194497
 30
0.0
 40
24.5
100
AcDbArc
 50
226.1017185687245
 51
313.8982814312755
  0
LINE
  5
7C5
330
4BA
100
AcDbEntity
  8
_-0
  6
Continuous
100
AcDbLine
 10
-230.7000000000007
 20
-273.9213538390322
 30
0.0
 11
-230.6999999999935
 21
274.2111722019181
 31
0.0
  0
LINE
  5
7C6
330
4BA
100
AcDbEntity
  8
_-0
  6
Continuous
100
AcDbLine
 10
-280.8499999999876
 20
310.9004570672114
 30
0.0
 11
-280.8499999999949
 21
-274.1253414081148
 31
0.0
  0
LINE
  5
7C7
330
4BA
100
AcDbEntity
  8
0
370
    20
100
AcDbLine
 10
747.5378152740486
 20
307.028670380023
 30
0.0
 11
752.0121847259907
 21
302.7231469313265
 31
0.0
  0
ARC
  5
7C8
330
4BA
100
AcDbEntity
  8
0
370
    20
100
AcDbCircle
 10
576.7500000000182
 20
289.3746585918852
 30
0.0
 40
24.5
100
AcDbArc
 50
46.10171856872449
 51
133.8982814312755
  0
LINE
  5
7C9
330
4BA
100
AcDbEntity
  8
0
370
    20
100
AcDbLine
 10
405.9621847259878
 20
307.028670380023
 30
0.0
 11
401.4878152740457
 21
302.7231469313265
 31
0.0
  0
LINE
  5
7CA
330
4BA
100
AcDbEntity
  8
0
370
    20
100
AcDbLine
 10
363.0378152740486
 20
307.0286703800084
 30
0.0
 11
367.5121847259907
 21
302.7231469313265
 31
0.0
  0
LINE
  5
7CB
330
4BA
100
AcDbEntity
  8
0
370
    20
100
AcDbLine
 10
329.062184725979
 20
307.0286703800084
 30
0.0
 11
324.587815274037
 21
302.7231469313265
 31
0.0
  0
ARC
  5
7CC
330
4BA
100
AcDbEntity
  8
0
370
    20
100
AcDbCircle
 10
346.0500000000065
 20
289.3746585918852
 30
0.0
 40
24.5
100
AcDbArc
 50
46.10171856872449
 51
133.8982814312755
  0
ARC
  5
7CD
330
4BA
100
AcDbEntity
  8
0
370
    20
100
AcDbCircle
 10
384.5000000000182
 20
320.3771587194497
 30
0.0
 40
24.5
100
AcDbArc
 50
226.1017185687245
 51
313.8982814312755
  0
LINE
  5
7CE
330
4BA
100
AcDbEntity
  8
0
370
    20
100
AcDbLine
 10
559.7621847259907
 20
307.028670380023
 30
0.0
 11
555.2878152740486
 21
302.7231469313265
 31
0.0
  0
LINE
  5
7CF
330
4BA
100
AcDbEntity
  8
0
370
    20
100
AcDbLine
 10
516.8378152740515
 20
307.0286703800084
 30
0.0
 11
521.312184725979
 21
302.7231469313265
 31
0.0
  0
LINE
  5
7D0
330
4BA
100
AcDbEntity
  8
0
370
    20
100
AcDbLine
 10
482.8621847259819
 20
307.0286703800084
 30
0.0
 11
478.3878152740399
 21
302.7231469313265
 31
0.0
  0
LINE
  5
7D1
330
4BA
100
AcDbEntity
  8
0
370
    20
100
AcDbLine
 10
439.9378152740428
 20
307.028670380023
 30
0.0
 11
444.4121847259848
 21
302.7231469313265
 31
0.0
  0
ARC
  5
7D2
330
4BA
100
AcDbEntity
  8
0
370
    20
100
AcDbCircle
 10
461.4000000000124
 20
320.3771587194497
 30
0.0
 40
24.5
100
AcDbArc
 50
226.1017185687245
 51
313.8982814312755
  0
ARC
  5
7D3
330
4BA
100
AcDbEntity
  8
0
370
    20
100
AcDbCircle
 10
538.3000000000211
 20
320.3771587194497
 30
0.0
 40
24.5
100
AcDbArc
 50
226.1017185687245
 51
313.8982814312755
  0
ARC
  5
7D4
330
4BA
100
AcDbEntity
  8
0
370
    20
100
AcDbCircle
 10
499.8500000000095
 20
289.3746585918852
 30
0.0
 40
24.5
100
AcDbArc
 50
46.10171856872449
 51
133.8982814312755
  0
ARC
  5
7D5
330
4BA
100
AcDbEntity
  8
0
370
    20
100
AcDbCircle
 10
422.9500000000153
 20
289.3746585918852
 30
0.0
 40
24.5
100
AcDbArc
 50
46.10171856872449
 51
133.8982814312755
  0
LINE
  5
7D6
330
4BA
100
AcDbEntity
  8
0
370
    20
100
AcDbLine
 10
670.6378152740399
 20
307.0286703800084
 30
0.0
 11
675.1121847259819
 21
302.7231469313265
 31
0.0
  0
ARC
  5
7D7
330
4BA
100
AcDbEntity
  8
0
370
    20
100
AcDbCircle
 10
692.1000000000095
 20
320.3771587194497
 30
0.0
 40
24.5
100
AcDbArc
 50
226.1017185687245
 51
313.8982814312755
  0
LINE
  5
7D8
330
4BA
100
AcDbEntity
  8
0
370
    20
100
AcDbLine
 10
713.562184725979
 20
307.028670380023
 30
0.0
 11
709.0878152740515
 21
302.7231469313265
 31
0.0
  0
ARC
  5
7D9
330
4BA
100
AcDbEntity
  8
0
370
    20
100
AcDbCircle
 10
615.2000000000153
 20
320.3771587194497
 30
0.0
 40
24.5
100
AcDbArc
 50
226.1017185687245
 51
313.8982814312755
  0
LINE
  5
7DA
330
4BA
100
AcDbEntity
  8
0
370
    20
100
AcDbLine
 10
636.6621847259848
 20
307.0286703800084
 30
0.0
 11
632.1878152740428
 21
302.7231469313265
 31
0.0
  0
LINE
  5
7DB
330
4BA
100
AcDbEntity
  8
0
370
    20
100
AcDbLine
 10
593.7378152740457
 20
307.028670380023
 30
0.0
 11
598.2121847259878
 21
302.7231469313265
 31
0.0
  0
ARC
  5
7DC
330
4BA
100
AcDbEntity
  8
0
370
    20
100
AcDbCircle
 10
653.6500000000124
 20
289.3746585918852
 30
0.0
 40
24.5
100
AcDbArc
 50
46.10171856872449
 51
133.8982814312755
  0
ARC
  5
7DD
330
4BA
100
AcDbEntity
  8
0
370
    20
100
AcDbCircle
 10
730.5500000000211
 20
289.3746585918852
 30
0.0
 40
24.5
100
AcDbArc
 50
46.10171856872449
 51
133.8982814312755
  0
LINE
  5
7DE
330
4BA
100
AcDbEntity
  8
_-0
  6
Continuous
100
AcDbLine
 10
692.1000000000022
 20
-273.8511809544725
 30
0.0
 11
692.1000000000095
 21
274.2813450864778
 31
0.0
  0
LINE
  5
7DF
330
4BA
100
AcDbEntity
  8
_-0
  6
Continuous
100
AcDbLine
 10
615.200000000008
 20
-274.3286852595775
 30
0.0
 11
615.2000000000153
 21
274.1676131384011
 31
0.0
  0
LINE
  5
7E0
330
4BA
100
AcDbEntity
  8
_-0
  6
Continuous
100
AcDbLine
 10
538.3000000000138
 20
-274.2481491989893
 30
0.0
 11
538.3000000000211
 21
274.2481491989893
 31
0.0
  0
LINE
  5
7E1
330
4BA
100
AcDbEntity
  8
_-0
  6
Continuous
100
AcDbLine
 10
461.4000000000051
 20
-274.1879213315115
 30
0.0
 11
461.4000000000124
 21
274.3083770664671
 31
0.0
  0
LINE
  5
7E2
330
4BA
100
AcDbEntity
  8
_-0
  6
Continuous
100
AcDbLine
 10
384.5000000000109
 20
-274.147851749236
 30
0.0
 11
384.5000000000182
 21
274.3484466487425
 31
0.0
  0
ARC
  5
7E3
330
4BA
100
AcDbEntity
  8
0
370
    20
100
AcDbCircle
 10
230.7000000000153
 20
320.3771587194497
 30
0.0
 40
24.5
100
AcDbArc
 50
226.1017185687245
 51
313.8982814312755
  0
LINE
  5
7E4
330
4BA
100
AcDbEntity
  8
0
370
    20
100
AcDbLine
 10
-98.3621847259601
 20
307.0286703800084
 30
0.0
 11
-93.88781527401807
 21
302.7231469313265
 31
0.0
  0
ARC
  5
7E5
330
4BA
100
AcDbEntity
  8
0
370
    20
100
AcDbCircle
 10
-115.3499999999876
 20
289.3746585918852
 30
0.0
 40
24.5
100
AcDbArc
 50
46.10171856872449
 51
133.8982814312755
  0
LINE
  5
7E6
330
4BA
100
AcDbEntity
  8
0
370
    20
100
AcDbLine
 10
-175.2621847259543
 20
307.028670380023
 30
0.0
 11
-170.7878152740268
 21
302.7231469313265
 31
0.0
  0
ARC
  5
7E7
330
4BA
100
AcDbEntity
  8
0
370
    20
100
AcDbCircle
 10
-153.7999999999847
 20
320.3771587194497
 30
0.0
 40
24.5
100
AcDbArc
 50
226.1017185687245
 51
313.8982814312755
  0
LINE
  5
7E8
330
4BA
100
AcDbEntity
  8
0
370
    20
100
AcDbLine
 10
-132.3378152740152
 20
307.0286703800084
 30
0.0
 11
-136.8121847259572
 21
302.7231469313265
 31
0.0
  0
ARC
  5
7E9
330
4BA
100
AcDbEntity
  8
0
370
    20
100
AcDbCircle
 10
76.90000000001237
 20
320.3771587194497
 30
0.0
 40
24.5
100
AcDbArc
 50
226.1017185687245
 51
313.8982814312755
  0
LINE
  5
7EA
330
4BA
100
AcDbEntity
  8
0
370
    20
100
AcDbLine
 10
55.4378152740428
 20
307.0286703800084
 30
0.0
 11
59.91218472598484
 21
302.7231469313265
 31
0.0
  0
LINE
  5
7EB
330
4BA
100
AcDbEntity
  8
0
370
    20
100
AcDbLine
 10
21.4621847259732
 20
307.0286703800084
 30
0.0
 11
16.98781527404572
 21
302.7231469313265
 31
0.0
  0
LINE
  5
7EC
330
4BA
100
AcDbEntity
  8
0
370
    20
100
AcDbLine
 10
-55.43781527402098
 20
307.028670380023
 30
0.0
 11
-59.91218472596302
 21
302.7231469313265
 31
0.0
  0
LINE
  5
7ED
330
4BA
100
AcDbEntity
  8
0
370
    20
100
AcDbLine
 10
-21.46218472596593
 20
307.028670380023
 30
0.0
 11
-16.98781527402389
 21
302.7231469313265
 31
0.0
  0
ARC
  5
7EE
330
4BA
100
AcDbEntity
  8
0
370
    20
100
AcDbCircle
 10
-76.89999999999054
 20
320.3771587194497
 30
0.0
 40
24.5
100
AcDbArc
 50
226.1017185687245
 51
313.8982814312755
  0
ARC
  5
7EF
330
4BA
100
AcDbEntity
  8
0
370
    20
100
AcDbCircle
 10
0.000000000003638
 20
320.3771587194497
 30
0.0
 40
24.5
100
AcDbArc
 50
226.1017185687245
 51
313.8982814312755
  0
ARC
  5
7F0
330
4BA
100
AcDbEntity
  8
0
370
    20
100
AcDbCircle
 10
38.45000000001528
 20
289.3746585918852
 30
0.0
 40
24.5
100
AcDbArc
 50
46.10171856872449
 51
133.8982814312755
  0
ARC
  5
7F1
330
4BA
100
AcDbEntity
  8
0
370
    20
100
AcDbCircle
 10
-38.44999999999345
 20
289.3746585918852
 30
0.0
 40
24.5
100
AcDbArc
 50
46.10171856872449
 51
133.8982814312755
  0
LINE
  5
7F2
330
4BA
100
AcDbEntity
  8
0
370
    20
100
AcDbLine
 10
209.2378152740457
 20
307.0286703800084
 30
0.0
 11
213.7121847259878
 21
302.7231469313265
 31
0.0
  0
ARC
  5
7F3
330
4BA
100
AcDbEntity
  8
0
370
    20
100
AcDbCircle
 10
153.8000000000065
 20
320.3771587194497
 30
0.0
 40
24.5
100
AcDbArc
 50
226.1017185687245
 51
313.8982814312755
  0
LINE
  5
7F4
330
4BA
100
AcDbEntity
  8
0
370
    20
100
AcDbLine
 10
175.2621847259761
 20
307.0286703800084
 30
0.0
 11
170.7878152740341
 21
302.7231469313265
 31
0.0
  0
ARC
  5
7F5
330
4BA
100
AcDbEntity
  8
0
370
    20
100
AcDbCircle
 10
192.2500000000036
 20
289.3746585918852
 30
0.0
 40
24.5
100
AcDbArc
 50
46.10171856872449
 51
133.8982814312755
  0
LINE
  5
7F6
330
4BA
100
AcDbEntity
  8
0
370
    20
100
AcDbLine
 10
98.36218472598193
 20
307.028670380023
 30
0.0
 11
93.8878152740399
 21
302.7231469313265
 31
0.0
  0
ARC
  5
7F7
330
4BA
100
AcDbEntity
  8
0
370
    20
100
AcDbCircle
 10
115.3500000000095
 20
289.3746585918852
 30
0.0
 40
24.5
100
AcDbArc
 50
46.10171856872449
 51
133.8982814312755
  0
LINE
  5
7F8
330
4BA
100
AcDbEntity
  8
0
370
    20
100
AcDbLine
 10
132.337815274037
 20
307.028670380023
 30
0.0
 11
136.812184725979
 21
302.7231469313265
 31
0.0
  0
LINE
  5
7F9
330
4BA
100
AcDbEntity
  8
_-0
  6
CENTER
 62
     4
370
    20
100
AcDbLine
 10
269.1500000000124
 20
263.5527300675603
 30
0.0
 11
269.1500000000124
 21
364.1965871162101
 31
0.0
  0
LINE
  5
7FA
330
4BA
100
AcDbEntity
  8
0
370
    20
100
AcDbLine
 10
286.1378152740399
 20
307.028670380023
 30
0.0
 11
290.6121847259819
 21
302.7231469313265
 31
0.0
  0
LINE
  5
7FB
330
4BA
100
AcDbEntity
  8
0
370
    20
100
AcDbLine
 10
252.1621847259848
 20
307.028670380023
 30
0.0
 11
247.6878152740428
 21
302.7231469313265
 31
0.0
  0
ARC
  5
7FC
330
4BA
100
AcDbEntity
  8
0
370
    20
100
AcDbCircle
 10
269.1500000000124
 20
289.3746585918852
 30
0.0
 40
24.5
100
AcDbArc
 50
46.10171856872449
 51
133.8982814312755
  0
LINE
  5
7FD
330
4BA
100
AcDbEntity
  8
0
370
    20
100
AcDbLine
 10
269.1500000000124
 20
289.3746585918852
 30
0.0
 11
269.1500000000124
 21
329.2191268744209
 31
0.0
  0
LINE
  5
7FE
330
4BA
100
AcDbEntity
  8
_-0
  6
Continuous
100
AcDbLine
 10
-76.89999999999782
 20
-274.3286852595775
 30
0.0
 11
-76.89999999999054
 21
274.1676131384011
 31
0.0
  0
LINE
  5
7FF
330
4BA
100
AcDbEntity
  8
_-0
  6
Continuous
100
AcDbLine
 10
-0.000000000003638
 20
-274.2481491989893
 30
0.0
 11
0.000000000003638
 21
274.2481491989893
 31
0.0
  0
LINE
  5
800
330
4BA
100
AcDbEntity
  8
_-0
  6
Continuous
100
AcDbLine
 10
76.9000000000051
 20
-274.1879213315115
 30
0.0
 11
76.90000000001237
 21
274.3083770664671
 31
0.0
  0
LINE
  5
801
330
4BA
100
AcDbEntity
  8
_-0
  6
Continuous
100
AcDbLine
 10
153.7999999999993
 20
-274.147851749236
 30
0.0
 11
153.8000000000065
 21
274.3484466487425
 31
0.0
  0
LINE
  5
802
330
4BA
100
AcDbEntity
  8
_-0
  6
Continuous
100
AcDbLine
 10
230.700000000008
 20
-274.1278415356792
 30
0.0
 11
230.7000000000153
 21
274.3684568623139
 31
0.0
  0
LINE
  5
803
330
4BA
100
AcDbEntity
  8
_-0
  6
Continuous
100
AcDbLine
 10
-153.799999999992
 20
-273.8511809544725
 30
0.0
 11
-153.7999999999847
 21
274.2813450864778
 31
0.0
  0
LINE
  5
804
330
4BA
100
AcDbEntity
  8
_-0
  6
Continuous
100
AcDbLine
 10
307.6000000000022
 20
-274.1278415356792
 30
0.0
 11
307.6000000000095
 21
274.3684568623139
 31
0.0
  0
LINE
  5
805
330
4BA
100
AcDbEntity
  8
_-0
  6
CENTER
 62
     4
370
    20
100
AcDbLine
 10
269.1500000000051
 20
-324.899103362186
 30
0.0
 11
269.1500000000124
 21
385.8972421624785
 31
0.0
  0
DIMENSION
  5
806
330
4BA
100
AcDbEntity
  8
0
370
    20
100
AcDbDimension
  2
*D20
 10
346.0500000000065
 20
373.0678996969218
 30
0.0
 11
506.6520668198868
 21
415.0678996969218
 31
0.0
 70
    32
 71
     5
 42
76.89999999999418
  3
ASKSTANDARD2
100
AcDbAlignedDimension
 13
269.1500000000124
 23
313.8746585918852
 33
0.0
 14
346.0500000000065
 24
313.8746585918852
 34
0.0
100
AcDbRotatedDimension
1001
ACAD
1000
DSTYLE
1002
{
1070
    40
1040
20.0
1070
    77
1070
     1
1070
    78
1070
     8
1070
   147
1040
1.0
1070
   176
1070
     7
1070
   177
1070
     7
1070
   178
1070
     7
1070
   179
1070
     1
1070
   271
1070
     1
1070
   272
1070
     1
1070
   288
1070
     0
1070
   289
1070
     3
1070
   340
1005
4D2
1070
   341
1005
53D
1070
   342
1005
53D
1002
}
  0
ARC
  5
815
330
4BA
100
AcDbEntity
  8
0
370
    20
100
AcDbCircle
 10
307.6000000000095
 20
320.3771587194497
 30
0.0
 40
24.5
100
AcDbArc
 50
226.1017185687245
 51
313.8982814312755
  0
LINE
  5
816
330
4BA
100
AcDbEntity
  8
0
370
    20
100
AcDbLine
 10
817.8101570460531
 20
-920.5752169654879
 30
0.0
 11
813.335787594111
 21
-924.8807404141698
 31
0.0
  0
ARC
  5
817
330
4BA
100
AcDbEntity
  8
0
370
    20
100
AcDbCircle
 10
834.7979723200806
 20
-938.2292287536111
 30
0.0
 40
24.5
100
AcDbArc
 50
61.47442291980685
 51
133.8982814312755
  0
LINE
  5
818
330
4BA
100
AcDbEntity
  8
_-0
  6
Continuous
100
AcDbLine
 10
796.3479723200835
 20
-1501.525241184529
 30
0.0
 11
796.3479723200835
 21
-953.3927151435782
 31
0.0
  0
LINE
  5
819
330
4BA
100
AcDbEntity
  8
_-0
  6
Continuous
370
    20
100
AcDbLine
 10
846.4979723200777
 20
-916.7034302782995
 30
0.0
 11
846.4979723200777
 21
-1501.729228753611
 31
0.0
  0
LINE
  5
81A
330
4BA
100
AcDbEntity
  8
0
370
    20
100
AcDbLine
 10
774.8857875941139
 20
-920.5752169654734
 30
0.0
 11
779.360157046056
 21
-924.8807404141698
 31
0.0
  0
ARC
  5
81B
330
4BA
100
AcDbEntity
  8
0
370
    20
100
AcDbCircle
 10
796.3479723200835
 20
-907.2267286260467
 30
0.0
 40
24.5
100
AcDbArc
 50
226.1017185687245
 51
313.8982814312755
  0
LINE
  5
81C
330
4BA
100
AcDbEntity
  8
0
370
    20
100
AcDbLine
 10
790.4621847259878
 20
307.0286703800084
 30
0.0
 11
785.9878152740457
 21
302.7231469313265
 31
0.0
  0
ARC
  5
81D
330
4BA
100
AcDbEntity
  8
0
370
    20
100
AcDbCircle
 10
807.4500000000153
 20
289.3746585918852
 30
0.0
 40
24.5
100
AcDbArc
 50
61.47442291980685
 51
133.8982814312755
  0
LINE
  5
81E
330
4BA
100
AcDbEntity
  8
_-0
  6
Continuous
100
AcDbLine
 10
769.0000000000109
 20
-273.9213538390322
 30
0.0
 11
769.0000000000182
 21
274.2111722019181
 31
0.0
  0
LINE
  5
81F
330
4BA
100
AcDbEntity
  8
_-0
  6
Continuous
370
    20
100
AcDbLine
 10
819.1500000000124
 20
310.9004570671968
 30
0.0
 11
819.1500000000051
 21
-274.1253414081148
 31
0.0
  0
DIMENSION
  5
820
330
4BA
100
AcDbEntity
  8
0
370
    20
100
AcDbDimension
  2
*D21
 10
-571.9668962851465
 20
-1501.729228753611
 30
0.0
 11
-613.9668962851465
 21
-1216.729228753611
 31
0.0
 70
    32
 71
     5
 42
570.0
  3
ASKSTANDARD2
100
AcDbAlignedDimension
 13
-1275.655162061932
 23
-931.7292287536111
 33
0.0
 14
-643.4572374373856
 24
-1501.729228753611
 34
0.0
 50
90.0
100
AcDbRotatedDimension
1001
ACAD
1000
DSTYLE
1002
{
1070
    40
1040
20.0
1070
    77
1070
     1
1070
    78
1070
     8
1070
   147
1040
1.0
1070
   176
1070
     7
1070
   177
1070
     7
1070
   178
1070
     7
1070
   179
1070
     1
1070
   271
1070
     1
1070
   272
1070
     1
1070
   288
1070
     0
1070
   289
1070
     3
1070
   340
1005
4D2
1070
   341
1005
53D
1070
   342
1005
53D
1002
}
  0
DIMENSION
  5
82D
330
4BA
100
AcDbEntity
  8
0
370
    20
100
AcDbDimension
  2
*D22
 10
-800.6551620619393
 20
-1672.95274485214
 30
0.0
 11
-1275.655162061932
 21
-1630.95274485214
 31
0.0
 70
    32
 71
     5
 42
949.9999999999854
  3
ASKSTANDARD2
100
AcDbAlignedDimension
 13
-1750.655162061925
 23
-1501.729228753597
 33
0.0
 14
-800.6551620619393
 24
-1501.729228753597
 34
0.0
100
AcDbRotatedDimension
1001
ACAD
1000
DSTYLE
1002
{
1070
    40
1040
20.0
1070
    77
1070
     1
1070
    78
1070
     8
1070
   147
1040
1.0
1070
   176
1070
     7
1070
   177
1070
     7
1070
   178
1070
     7
1070
   179
1070
     1
1070
   271
1070
     1
1070
   272
1070
     1
1070
   288
1070
     0
1070
   289
1070
     3
1070
   340
1005
4D2
1070
   341
1005
53D
1070
   342
1005
53D
1002
}
  0
LINE
  5
83A
330
4BA
100
AcDbEntity
  8
0
  6
CENTER
 62
     4
370
    20
100
AcDbLine
 10
-1877.658106547682
 20
-1342.342738409279
 30
0.0
 11
-672.4115995684006
 21
-1342.342738409279
 31
0.0
  0
DIMENSION
  5
83B
330
4BA
100
AcDbEntity
  8
0
370
    20
100
AcDbDimension
  2
*D23
 10
-1275.655162061888
 20
-1601.729228753597
 30
0.0
 11
-1337.696709542406
 21
-1150.276063722136
 31
0.0
 70
   164
 71
     5
 42
670.0000000000141
  3
ASKSTANDARD2
100
AcDbRadialDimension
 15
-1366.873451990057
 25
-937.9678080739977
 35
0.0
 40
0.0
1001
ACAD
1000
DSTYLE
1002
{
1070
    40
1040
20.0
1070
    77
1070
     1
1070
    78
1070
     8
1070
   147
1040
1.0
1070
   176
1070
     7
1070
   177
1070
     7
1070
   178
1070
     7
1070
   179
1070
     1
1070
   271
1070
     1
1070
   272
1070
     1
1070
   289
1070
     3
1070
   340
1005
4D2
1070
   341
1005
53D
1070
   342
1005
53D
1002
}
  0
LINE
  5
844
330
4BA
100
AcDbEntity
  8
0
  6
CENTER
 62
     4
370
    20
100
AcDbLine
 10
-1275.655162061932
 20
-1532.473840233506
 30
0.0
 11
-1275.655162061932
 21
-792.1397869235516
 31
0.0
  0
DIMENSION
  5
845
330
4BA
100
AcDbEntity
  8
0
370
    20
100
AcDbDimension
  2
*D24
 10
-1350.655162062019
 20
-1342.342738409381
 30
0.0
 11
-1465.380801069802
 21
-1216.260089068026
 31
0.0
 70
   164
 71
     5
 42
400.0000000000273
  3
ASKSTANDARD2
100
AcDbRadialDimension
 15
-1619.859211626604
 25
-1046.489430673857
 35
0.0
 40
0.0
1001
ACAD
1000
DSTYLE
1002
{
1070
    40
1040
20.0
1070
    77
1070
     1
1070
    78
1070
     8
1070
   147
1040
1.0
1070
   176
1070
     7
1070
   177
1070
     7
1070
   178
1070
     7
1070
   179
1070
     1
1070
   271
1070
     1
1070
   272
1070
     1
1070
   289
1070
     3
1070
   340
1005
4D2
1070
   341
1005
53D
1070
   342
1005
53D
1002
}
  0
LINE
  5
84E
330
4BA
100
AcDbEntity
  8
0
370
    20
100
AcDbLine
 10
-1750.655162061925
 20
-1501.729228753597
 30
0.0
 11
-1768.655162061939
 21
-1501.729228753604
 31
0.0
  0
LINE
  5
84F
330
4BA
100
AcDbEntity
  8
0
370
    20
100
AcDbLine
 10
-1768.655162061939
 20
-1501.729228753611
 30
0.0
 11
-1768.655162061939
 21
-1342.342738409279
 31
0.0
  0
LINE
  5
850
330
4BA
100
AcDbEntity
  8
0
370
    20
100
AcDbLine
 10
-1750.655162061932
 20
-1501.729228753611
 30
0.0
 11
-1750.655162061932
 21
-1342.342738409279
 31
0.0
  0
DIMENSION
  5
851
330
4BA
100
AcDbEntity
  8
0
370
    20
100
AcDbDimension
  2
*D25
 10
-673.4572374373856
 20
-1342.342738409279
 30
0.0
 11
-715.4572374373856
 21
-1206.671584773584
 31
0.0
 70
    32
 71
     5
 42
159.3864903443318
  3
ASKSTANDARD2
100
AcDbAlignedDimension
 13
-782.6551620619248
 23
-1501.729228753611
 33
0.0
 14
-736.505800962932
 24
-1342.342738409279
 34
0.0
 50
90.0
100
AcDbRotatedDimension
1001
ACAD
1000
DSTYLE
1002
{
1070
    40
1040
20.0
1070
    77
1070
     1
1070
    78
1070
     8
1070
   147
1040
1.0
1070
   176
1070
     7
1070
   177
1070
     7
1070
   178
1070
     7
1070
   179
1070
     1
1070
   271
1070
     1
1070
   272
1070
     1
1070
   288
1070
     0
1070
   289
1070
     3
1070
   340
1005
4D2
1070
   341
1005
53D
1070
   342
1005
53D
1002
}
  0
LINE
  5
85F
330
4BA
100
AcDbEntity
  8
0
370
    20
100
AcDbLine
 10
-800.6551620619393
 20
-1501.729228753597
 30
0.0
 11
-782.6551620619248
 21
-1501.729228753604
 31
0.0
  0
LINE
  5
860
330
4BA
100
AcDbEntity
  8
0
370
    20
100
AcDbLine
 10
-782.6551620619248
 20
-1501.729228753611
 30
0.0
 11
-782.6551620619248
 21
-1342.342738409279
 31
0.0
  0
LINE
  5
861
330
4BA
100
AcDbEntity
  8
0
370
    20
100
AcDbLine
 10
-800.6551620619321
 20
-1501.729228753611
 30
0.0
 11
-800.6551620619321
 21
-1342.342738409279
 31
0.0
  0
LINE
  5
862
330
4BA
100
AcDbEntity
  8
0
  6
CENTER
 62
     4
370
    20
100
AcDbLine
 10
-1200.655162061925
 20
-1342.342738409279
 30
0.0
 11
-919.8291975312256
 21
-1006.478653203008
 31
0.0
  0
LINE
  5
863
330
4BA
100
AcDbEntity
  8
0
370
    20
100
AcDbLine
 10
-1881.618102665616
 20
575.5289133643528
 30
0.0
 11
-1409.511436605204
 21
575.5289133643528
 31
0.0
  0
TEXT
  5
864
330
4BA
100
AcDbEntity
  8
N文字
 62
     7
100
AcDbText
 10
-1881.618102665616
 20
591.9197200357885
 30
0.0
 40
68.03999999999999
  1
①固定式
  7
MS　明朝
100
AcDbText
  0
LINE
  5
865
330
4BA
100
AcDbEntity
  8
0
370
    20
100
AcDbLine
 10
-1854.270130345572
 20
-727.2177059752139
 30
0.0
 11
-1382.16346428516
 21
-727.2177059752139
 31
0.0
  0
TEXT
  5
866
330
4BA
100
AcDbEntity
  8
N文字
 62
     7
100
AcDbText
 10
-1854.270130345572
 20
-710.8268993037782
 30
0.0
 40
68.03999999999999
  1
②点検窓付
  7
MS　明朝
100
AcDbText
  0
LINE
  5
867
102
{ACAD_REACTORS
102
}
330
4BA
100
AcDbEntity
  8
0
  6
CENTER1
 62
     4
370
    20
100
AcDbLine
 10
-951.3767212484927
 20
-993.5425803304315
 30
0.0
 11
-964.1702713818631
 21
-1008.843494614703
 31
0.0
  0
LINE
  5
868
102
{ACAD_REACTORS
102
}
330
4BA
100
AcDbEntity
  8
0
370
    20
100
AcDbLine
 10
-965.9444498846024
 20
-981.3449799824521
 30
0.0
 11
-964.7937021568614
 21
-982.3071544297854
 31
0.0
  0
LINE
  5
869
102
{ACAD_REACTORS
102
}
330
4BA
100
AcDbEntity
  8
0
370
    20
100
AcDbLine
 10
-969.9252992094371
 20
-988.4444756443118
 30
0.0
 11
-964.7937021568614
 21
-982.3071544297854
 31
0.0
  0
LINE
  5
86A
102
{ACAD_REACTORS
102
}
330
4BA
100
AcDbEntity
  8
0
370
    20
100
AcDbLine
 10
-972.0382213844969
 20
-988.633048924683
 30
0.0
 11
-965.9444498846024
 21
-981.3449799824521
 31
0.0
  0
LINE
  5
86B
102
{ACAD_REACTORS
102
}
330
4BA
100
AcDbEntity
  8
0
370
    20
100
AcDbLine
 10
-945.3760143513609
 20
-1008.970863854527
 30
0.0
 11
-946.3381887987016
 21
-1010.121611582246
 31
0.0
  0
LINE
  5
86C
102
{ACAD_REACTORS
102
}
330
4BA
100
AcDbEntity
  8
0
  6
DASHED
 62
     1
370
    20
100
AcDbLine
 10
-936.5536151054803
 20
-1016.347534617569
 30
0.0
 11
-937.51578955285
 21
-1017.498282345303
 31
0.0
  0
LINE
  5
86D
102
{ACAD_REACTORS
102
}
330
4BA
100
AcDbEntity
  8
0
370
    20
100
AcDbLine
 10
-933.7824763402787
 20
-1016.997036550565
 30
0.0
 11
-935.2769942845516
 21
-1016.868911165853
 31
0.0
  0
LINE
  5
86E
102
{ACAD_REACTORS
102
}
330
4BA
100
AcDbEntity
  8
0
  6
CENTER1
 62
     4
370
    20
100
AcDbLine
 10
-951.3767212484709
 20
-993.5425803304461
 30
0.0
 11
-964.1702713818486
 21
-1008.843494614717
 31
0.0
  0
LINE
  5
86F
102
{ACAD_REACTORS
102
}
330
4BA
100
AcDbEntity
  8
0
100
AcDbLine
 10
-958.542186104456
 20
-995.8765047110792
 30
0.0
 11
-970.6014391779499
 21
-1010.299209565215
 31
0.0
  0
LINE
  5
870
102
{ACAD_REACTORS
102
}
330
4BA
100
AcDbEntity
  8
0
100
AcDbLine
 10
-958.4478994642741
 20
-996.9329657986091
 30
0.0
 11
-970.5071525377825
 21
-1011.355670652738
 31
0.0
  0
LINE
  5
871
102
{ACAD_REACTORS
102
}
330
4BA
100
AcDbEntity
  8
0
100
AcDbLine
 10
-952.4048648899297
 20
-1001.00810176364
 30
0.0
 11
-964.4641179634382
 21
-1015.430806617762
 31
0.0
  0
LINE
  5
872
102
{ACAD_REACTORS
102
}
330
4BA
100
AcDbEntity
  8
0
100
AcDbLine
 10
-953.4613259774887
 20
-1001.102388403808
 30
0.0
 11
-965.5205790509899
 21
-1015.525093257944
 31
0.0
  0
LINE
  5
873
102
{ACAD_REACTORS
102
}
330
4BA
100
AcDbEntity
  8
0
100
AcDbLine
 10
-970.4505805536646
 20
-1011.989547305253
 30
0.0
 11
-966.1544557035049
 21
-1015.58166524204
 31
0.0
  0
LINE
  5
874
102
{ACAD_REACTORS
102
}
330
4BA
100
AcDbEntity
  8
0
100
AcDbLine
 10
-970.6014391779499
 20
-1010.299209565215
 30
0.0
 11
-964.4641179634382
 21
-1015.430806617762
 31
0.0
  0
LINE
  5
875
102
{ACAD_REACTORS
102
}
330
4BA
100
AcDbEntity
  8
0
100
AcDbLine
 10
-964.4641179634382
 20
-1015.430806617762
 30
0.0
 11
-966.1544557035049
 21
-1015.58166524204
 31
0.0
  0
LINE
  5
876
102
{ACAD_REACTORS
102
}
330
4BA
100
AcDbEntity
  8
0
100
AcDbLine
 10
-970.6014391779499
 20
-1010.299209565215
 30
0.0
 11
-970.4505805536646
 21
-1011.989547305253
 31
0.0
  0
LINE
  5
877
102
{ACAD_REACTORS
102
}
330
4BA
100
AcDbEntity
  8
0
100
AcDbLine
 10
-958.4478994642741
 20
-996.9329657986091
 30
0.0
 11
-958.542186104456
 21
-995.8765047110792
 31
0.0
  0
LINE
  5
878
102
{ACAD_REACTORS
102
}
330
4BA
100
AcDbEntity
  8
0
100
AcDbLine
 10
-953.4613259774887
 20
-1001.102388403808
 30
0.0
 11
-952.4048648899297
 21
-1001.00810176364
 31
0.0
  0
LINE
  5
879
102
{ACAD_REACTORS
102
}
330
4BA
100
AcDbEntity
  8
0
100
AcDbLine
 10
-952.8859521136219
 20
-1001.5834756275
 30
0.0
 11
-959.0232733281191
 21
-996.4518785749387
 31
0.0
  0
ARC
  5
87A
102
{ACAD_REACTORS
102
}
330
4BA
100
AcDbEntity
  8
0
100
AcDbCircle
 10
-958.923515356928
 20
-993.7927557768635
 30
0.0
 40
3.752776145935058
100
AcDbArc
 50
20.10000888425902
 51
80.09999111574068
  0
LINE
  5
87B
102
{ACAD_REACTORS
102
}
330
4BA
100
AcDbEntity
  8
0
100
AcDbLine
 10
-958.2783033810738
 20
-990.0958612325194
 30
0.0
 11
-956.9069829063337
 21
-990.335195253836
 31
0.0
  0
LINE
  5
87C
102
{ACAD_REACTORS
102
}
330
4BA
100
AcDbEntity
  8
0
100
AcDbLine
 10
-946.7623105706625
 20
-999.7247257969866
 30
0.0
 11
-947.2407019934581
 21
-998.4174606115994
 31
0.0
  0
ARC
  5
87D
102
{ACAD_REACTORS
102
}
330
4BA
100
AcDbEntity
  8
0
100
AcDbCircle
 10
-950.2865207491086
 20
-1001.014404200192
 30
0.0
 40
3.752776145935058
100
AcDbArc
 50
20.10000888425902
 51
80.09999111574068
  0
ARC
  5
87E
102
{ACAD_REACTORS
102
}
330
4BA
100
AcDbEntity
  8
0
100
AcDbCircle
 10
-958.7866043778522
 20
-1002.404701120773
 30
0.0
 40
10.46498680114746
100
AcDbArc
 50
29.08557764194599
 51
71.114422358043
  0
LINE
  5
87F
102
{ACAD_REACTORS
102
}
330
4BA
100
AcDbEntity
  8
0
 48
0.3
100
AcDbLine
 10
-949.7155290919873
 20
-1003.256735519572
 30
0.0
 11
-961.2315219023985
 21
-993.6278709551189
 31
0.0
  0
LINE
  5
880
102
{ACAD_REACTORS
102
}
330
4BA
100
AcDbEntity
  8
0
100
AcDbLine
 10
-949.7155290919873
 20
-1003.256735519572
 30
0.0
 11
-946.7623105706625
 21
-999.7247257969866
 31
0.0
  0
LINE
  5
881
102
{ACAD_REACTORS
102
}
330
4BA
100
AcDbEntity
  8
0
100
AcDbLine
 10
-952.594527294601
 20
-1000.849519378469
 30
0.0
 11
-949.641308773269
 21
-997.3175096558552
 31
0.0
  0
LINE
  5
882
102
{ACAD_REACTORS
102
}
330
4BA
100
AcDbEntity
  8
0
100
AcDbLine
 10
-958.3525236998066
 20
-996.0350870962211
 30
0.0
 11
-955.3993051784892
 21
-992.5030773736362
 31
0.0
  0
LINE
  5
883
102
{ACAD_REACTORS
102
}
330
4BA
100
AcDbEntity
  8
0
100
AcDbLine
 10
-961.2315219023985
 20
-993.6278709551189
 30
0.0
 11
-958.2783033810738
 21
-990.0958612325194
 31
0.0
  0
LINE
  5
884
102
{ACAD_REACTORS
102
}
330
4BA
100
AcDbEntity
  8
0
100
AcDbLine
 10
-956.9069829063337
 20
-990.335195253836
 30
0.0
 11
-947.2407019934581
 21
-998.4174606115994
 31
0.0
  0
ARC
  5
885
102
{ACAD_REACTORS
102
}
330
4BA
100
AcDbEntity
  8
0
100
AcDbCircle
 10
-966.020942105406
 20
-1002.281182928462
 30
0.0
 40
3.752776145935058
100
AcDbArc
 50
200.1000105758473
 51
260.0999894241514
  0
LINE
  5
886
102
{ACAD_REACTORS
102
}
330
4BA
100
AcDbEntity
  8
0
100
AcDbLine
 10
-954.3247185836117
 20
-1008.769264301329
 30
0.0
 11
-965.840711394023
 21
-999.1403997368907
 31
0.0
  0
LINE
  5
887
102
{ACAD_REACTORS
102
}
330
4BA
100
AcDbEntity
  8
0
100
AcDbLine
 10
-959.4573553951595
 20
-1012.950465703216
 30
0.0
 11
-969.0469197928578
 21
-1004.932345308618
 31
0.0
  0
LINE
  5
888
102
{ACAD_REACTORS
102
}
330
4BA
100
AcDbEntity
  8
0
100
AcDbLine
 10
-965.840711394023
 20
-999.1403997368907
 30
0.0
 11
-969.5451524260025
 21
-1003.570861501634
 31
0.0
  0
LINE
  5
889
102
{ACAD_REACTORS
102
}
330
4BA
100
AcDbEntity
  8
0
100
AcDbLine
 10
-969.5451524260025
 20
-1003.570861501634
 30
0.0
 11
-969.0469197928578
 21
-1004.932345308618
 31
0.0
  0
LINE
  5
88A
102
{ACAD_REACTORS
102
}
330
4BA
100
AcDbEntity
  8
0
100
AcDbLine
 10
-957.2037167862109
 20
-1006.362048160234
 30
0.0
 11
-960.9081578181904
 21
-1010.792509924984
 31
0.0
  0
LINE
  5
88B
102
{ACAD_REACTORS
102
}
330
4BA
100
AcDbEntity
  8
0
100
AcDbLine
 10
-954.3247185836117
 20
-1008.769264301329
 30
0.0
 11
-958.0291596155766
 21
-1013.199726066108
 31
0.0
  0
LINE
  5
88C
102
{ACAD_REACTORS
102
}
330
4BA
100
AcDbEntity
  8
0
100
AcDbLine
 10
-962.9617131914165
 20
-1001.547615878
 30
0.0
 11
-966.666154223396
 21
-1005.978077642758
 31
0.0
  0
ARC
  5
88D
102
{ACAD_REACTORS
102
}
330
4BA
100
AcDbEntity
  8
0
100
AcDbCircle
 10
-957.3839474976085
 20
-1009.502831351812
 30
0.0
 40
3.752776145935058
100
AcDbArc
 50
200.1000105758473
 51
260.0999894241514
  0
ARC
  5
88E
102
{ACAD_REACTORS
102
}
330
4BA
100
AcDbEntity
  8
0
100
AcDbCircle
 10
-957.7885508451764
 20
-1001.211042488445
 30
0.0
 40
10.07653045654297
100
AcDbArc
 50
208.2346069182501
 51
251.9653930817358
  0
LINE
  5
88F
102
{ACAD_REACTORS
102
}
330
4BA
100
AcDbEntity
  8
0
100
AcDbLine
 10
-958.0291596155766
 20
-1013.199726066108
 30
0.0
 11
-959.4573553951595
 21
-1012.950465703216
 31
0.0
  0
LINE
  5
890
102
{ACAD_REACTORS
102
}
330
4BA
100
AcDbEntity
  8
1
 48
0.3
100
AcDbLine
 10
-952.8926440566902
 20
-1007.35966387856
 30
0.0
 11
-964.7069873946493
 21
-997.4813395524034
 31
0.0
  0
LINE
  5
891
102
{ACAD_REACTORS
102
}
330
4BA
100
AcDbEntity
  8
1
 48
0.3
100
AcDbLine
 10
-954.1755433198523
 20
-1008.893994182195
 30
0.0
 11
-965.9898866577969
 21
-999.015669856024
 31
0.0
  0
LINE
  5
892
102
{ACAD_REACTORS
102
}
330
4BA
100
AcDbEntity
  8
1
 48
0.3
100
AcDbLine
 10
-952.8926440566902
 20
-1007.35966387856
 30
0.0
 11
-954.1755433198523
 21
-1008.893994182195
 31
0.0
  0
LINE
  5
893
102
{ACAD_REACTORS
102
}
330
4BA
100
AcDbEntity
  8
1
 48
0.3
100
AcDbLine
 10
-959.9705851484578
 20
-1004.048587118152
 30
0.0
 11
-958.2765633195486
 21
-1002.858008636038
 31
0.0
  0
LINE
  5
894
102
{ACAD_REACTORS
102
}
330
4BA
100
AcDbEntity
  8
1
 48
0.3
100
AcDbLine
 10
-960.6059673949458
 20
-1003.517325098554
 30
0.0
 11
-958.9119455660511
 21
-1002.326746616433
 31
0.0
  0
LINE
  5
895
102
{ACAD_REACTORS
102
}
330
4BA
100
AcDbEntity
  8
1
 48
0.3
100
AcDbLine
 10
-964.7069873946493
 20
-997.4813395524034
 30
0.0
 11
-965.9898866577969
 21
-999.015669856024
 31
0.0
  0
LINE
  5
896
102
{ACAD_REACTORS
102
}
330
4BA
100
AcDbEntity
  8
0
  6
Continuous
 62
     7
100
AcDbLine
 10
-949.5279955706392
 20
-1003.413537882014
 30
0.0
 11
-961.4190554237684
 21
-993.4710685926839
 31
0.0
  0
LINE
  5
897
102
{ACAD_REACTORS
102
}
330
4BA
100
AcDbEntity
  8
0
  6
Continuous
 62
     7
100
AcDbLine
 10
-950.5543149811456
 20
-1004.641002124903
 30
0.0
 11
-962.4453748342967
 21
-994.6985328355804
 31
0.0
  0
LINE
  5
898
102
{ACAD_REACTORS
102
}
330
4BA
100
AcDbEntity
  8
0
  6
DASHED
 62
     3
100
AcDbLine
 10
-952.2514320130176
 20
-1001.136391561638
 30
0.0
 11
-953.2777514235459
 21
-1002.363855804542
 31
0.0
  0
LINE
  5
899
102
{ACAD_REACTORS
102
}
330
4BA
100
AcDbEntity
  8
0
  6
Continuous
 62
     7
100
AcDbLine
 10
-949.5279955706392
 20
-1003.413537882014
 30
0.0
 11
-950.5543149811456
 21
-1004.641002124903
 31
0.0
  0
LINE
  5
89A
102
{ACAD_REACTORS
102
}
330
4BA
100
AcDbEntity
  8
0
  6
Continuous
 62
     7
100
AcDbLine
 10
-961.4190554237684
 20
-993.4710685926839
 30
0.0
 11
-962.4453748342967
 21
-994.6985328355804
 31
0.0
  0
LINE
  5
89B
102
{ACAD_REACTORS
102
}
330
4BA
100
AcDbEntity
  8
CENTER
  6
CENTER
 62
     1
100
AcDbLine
 10
-954.8320758656373
 20
-997.6751380855276
 30
0.0
 11
-957.1412945392767
 21
-1000.436932632067
 31
0.0
  0
LINE
  5
89C
102
{ACAD_REACTORS
102
}
330
4BA
100
AcDbEntity
  8
0
  6
Continuous
 62
     7
100
AcDbLine
 10
-956.4998449077211
 20
-999.6697674802635
 30
0.0
 11
-956.4999090526799
 21
-999.6698441967819
 31
0.0
  0
LINE
  5
89D
102
{ACAD_REACTORS
102
}
330
4BA
100
AcDbEntity
  8
0
  6
DASHED
 62
     3
100
AcDbLine
 10
-958.6956189813973
 20
-995.7482149130519
 30
0.0
 11
-959.721938391911
 21
-996.9756791559485
 31
0.0
  0
LINE
  5
89E
102
{ACAD_REACTORS
102
}
330
4BA
100
AcDbEntity
  8
0
370
    20
100
AcDbLine
 10
-965.4451478333176
 20
-994.7785411568912
 30
0.0
 11
-950.1018447970237
 21
-1007.607533788272
 31
0.0
  0
LINE
  5
89F
102
{ACAD_REACTORS
102
}
330
4BA
100
AcDbEntity
  8
0
370
    20
100
AcDbLine
 10
-950.1018447970237
 20
-1007.607533788272
 30
0.0
 11
-951.1281642075301
 21
-1008.834998031169
 31
0.0
  0
LINE
  5
8A0
102
{ACAD_REACTORS
102
}
330
4BA
100
AcDbEntity
  8
0
370
    20
100
AcDbLine
 10
-951.1281642075301
 20
-1008.834998031169
 30
0.0
 11
-966.4714672438386
 21
-996.0060053998022
 31
0.0
  0
LINE
  5
8A1
102
{ACAD_REACTORS
102
}
330
4BA
100
AcDbEntity
  8
0
370
    20
100
AcDbLine
 10
-966.4714672438386
 20
-996.0060053998022
 30
0.0
 11
-965.4451478333176
 21
-994.7785411568912
 31
0.0
  0
LINE
  5
8A2
102
{ACAD_REACTORS
102
}
330
4BA
100
AcDbEntity
  8
_-0
  6
PHANTOM
 62
     3
370
    20
100
AcDbLine
 10
-932.529216066021
 20
-1021.667704950487
 30
0.0
 11
-944.0753094342617
 21
-1035.47667768316
 31
0.0
  0
LINE
  5
8A3
102
{ACAD_REACTORS
102
}
330
4BA
100
AcDbEntity
  8
0
  6
CENTER
 62
     4
370
    20
100
AcDbLine
 10
-925.8630338544863
 20
-1011.356587190297
 30
0.0
 11
-935.832316712007
 21
-1023.279715711178
 31
0.0
  0
LINE
  5
8A4
102
{ACAD_REACTORS
102
}
330
4BA
100
AcDbEntity
  8
0
  6
CENTER
 62
     4
370
    20
100
AcDbLine
 10
-925.8630338544863
 20
-1011.356587190297
 30
0.0
 11
-935.832316712007
 21
-1023.279715711178
 31
0.0
  0
LINE
  5
8A5
102
{ACAD_REACTORS
102
}
330
4BA
100
AcDbEntity
  8
0
370
    20
100
AcDbLine
 10
-893.5923666038252
 20
-1052.268713985461
 30
0.0
 11
-888.4607695512714
 21
-1046.131392770934
 31
0.0
  0
LINE
  5
8A6
102
{ACAD_REACTORS
102
}
330
4BA
100
AcDbEntity
  8
0
370
    20
100
AcDbLine
 10
-893.403793323454
 20
-1054.381636160528
 30
0.0
 11
-887.3100218235595
 21
-1047.093567218282
 31
0.0
  0
LINE
  5
8A7
102
{ACAD_REACTORS
102
}
330
4BA
100
AcDbEntity
  8
0
  6
CENTER1
 62
     4
370
    20
100
AcDbLine
 10
-902.6617341082274
 20
-1034.274631935084
 30
0.0
 11
-915.4552842415978
 21
-1049.575546219348
 31
0.0
  0
LINE
  5
8A8
102
{ACAD_REACTORS
102
}
330
4BA
100
AcDbEntity
  8
0
370
    20
100
AcDbLine
 10
-887.3100218235595
 20
-1047.093567218282
 30
0.0
 11
-888.4607695512714
 21
-1046.131392770934
 31
0.0
  0
LINE
  5
8A9
102
{ACAD_REACTORS
102
}
330
4BA
100
AcDbEntity
  8
0
370
    20
100
AcDbLine
 10
-893.403793323454
 20
-1054.381636160528
 30
0.0
 11
-933.6799637937693
 21
-1020.705530503154
 31
0.0
  0
LINE
  5
8AA
102
{ACAD_REACTORS
102
}
330
4BA
100
AcDbEntity
  8
0
370
    20
100
AcDbLine
 10
-893.5923666038252
 20
-1052.268713985461
 30
0.0
 11
-932.7177893463995
 21
-1019.554782775405
 31
0.0
  0
LINE
  5
8AB
102
{ACAD_REACTORS
102
}
330
4BA
100
AcDbEntity
  8
0
370
    20
100
AcDbLine
 10
-925.4297204041686
 20
-1025.648554275329
 30
0.0
 11
-926.3918948515093
 21
-1026.799302003034
 31
0.0
  0
LINE
  5
8AC
102
{ACAD_REACTORS
102
}
330
4BA
100
AcDbEntity
  8
0
370
    20
100
AcDbLine
 10
-930.0119269257739
 20
-1020.149705212614
 30
0.0
 11
-929.6211701628163
 21
-1021.597914158927
 31
0.0
  0
LINE
  5
8AD
102
{ACAD_REACTORS
102
}
330
4BA
100
AcDbEntity
  8
0
370
    20
100
AcDbLine
 10
-928.8819635873406
 20
-1022.762030933256
 30
0.0
 11
-929.844138034674
 21
-1023.912778660997
 31
0.0
  0
ARC
  5
8AE
102
{ACAD_REACTORS
102
}
330
4BA
100
AcDbEntity
  8
0
100
AcDbCircle
 10
-910.5868732369017
 20
-1048.631258877518
 30
0.0
 40
3.752776145935058
100
AcDbArc
 50
200.1000105758473
 51
260.0999894241514
  0
LINE
  5
8AF
102
{ACAD_REACTORS
102
}
330
4BA
100
AcDbEntity
  8
0
100
AcDbLine
 10
-919.0436371332871
 20
-1038.268827262611
 30
0.0
 11
-907.5276443228904
 21
-1047.897691827056
 31
0.0
  0
LINE
  5
8B0
102
{ACAD_REACTORS
102
}
330
4BA
100
AcDbEntity
  8
0
100
AcDbLine
 10
-922.2498455321438
 20
-1044.060772834309
 30
0.0
 11
-912.6602811344528
 21
-1052.078893228936
 31
0.0
  0
LINE
  5
8B1
102
{ACAD_REACTORS
102
}
330
4BA
100
AcDbEntity
  8
0
100
AcDbLine
 10
-907.5276443228904
 20
-1047.897691827056
 30
0.0
 11
-911.2320853548408
 21
-1052.328153591814
 31
0.0
  0
LINE
  5
8B2
102
{ACAD_REACTORS
102
}
330
4BA
100
AcDbEntity
  8
0
100
AcDbLine
 10
-911.2320853548408
 20
-1052.328153591814
 30
0.0
 11
-912.6602811344528
 21
-1052.078893228936
 31
0.0
  0
LINE
  5
8B3
102
{ACAD_REACTORS
102
}
330
4BA
100
AcDbEntity
  8
0
100
AcDbLine
 10
-916.1646389307025
 20
-1040.676043403721
 30
0.0
 11
-919.8690799626747
 21
-1045.106505168478
 31
0.0
  0
LINE
  5
8B4
102
{ACAD_REACTORS
102
}
330
4BA
100
AcDbEntity
  8
0
100
AcDbLine
 10
-919.0436371332871
 20
-1038.268827262611
 30
0.0
 11
-922.7480781652666
 21
-1042.699289027369
 31
0.0
  0
LINE
  5
8B5
102
{ACAD_REACTORS
102
}
330
4BA
100
AcDbEntity
  8
0
100
AcDbLine
 10
-910.4066425255041
 20
-1045.490475685932
 30
0.0
 11
-914.1110835574691
 21
-1049.920937450705
 31
0.0
  0
ARC
  5
8B6
102
{ACAD_REACTORS
102
}
330
4BA
100
AcDbEntity
  8
0
100
AcDbCircle
 10
-919.2238678446993
 20
-1041.409610454182
 30
0.0
 40
3.752776145935058
100
AcDbArc
 50
200.1000105758473
 51
260.0999894241514
  0
ARC
  5
8B7
102
{ACAD_REACTORS
102
}
330
4BA
100
AcDbEntity
  8
0
100
AcDbCircle
 10
-910.9914765844551
 20
-1040.339470014165
 30
0.0
 40
10.07653045654297
100
AcDbArc
 50
208.2346069182501
 51
251.9653930817358
  0
LINE
  5
8B8
102
{ACAD_REACTORS
102
}
330
4BA
100
AcDbEntity
  8
0
100
AcDbLine
 10
-922.7480781652666
 20
-1042.699289027369
 30
0.0
 11
-922.2498455321438
 21
-1044.060772834309
 31
0.0
  0
LINE
  5
8B9
102
{ACAD_REACTORS
102
}
330
4BA
100
AcDbEntity
  8
1
 48
0.3
100
AcDbLine
 10
-906.0955697959907
 20
-1046.488091404281
 30
0.0
 11
-907.3784690591237
 21
-1048.022421707916
 31
0.0
  0
LINE
  5
8BA
102
{ACAD_REACTORS
102
}
330
4BA
100
AcDbEntity
  8
1
 48
0.3
100
AcDbLine
 10
-912.7623883219603
 20
-1043.520766465394
 30
0.0
 11
-911.8906116246253
 21
-1041.642684340237
 31
0.0
  0
LINE
  5
8BB
102
{ACAD_REACTORS
102
}
330
4BA
100
AcDbEntity
  8
1
 48
0.3
100
AcDbLine
 10
-913.3977705684556
 20
-1042.989504445795
 30
0.0
 11
-912.5259938710915
 21
-1041.111422320646
 31
0.0
  0
LINE
  5
8BC
102
{ACAD_REACTORS
102
}
330
4BA
100
AcDbEntity
  8
1
 48
0.3
100
AcDbLine
 10
-917.9099131339353
 20
-1036.609767078124
 30
0.0
 11
-919.1928123970756
 21
-1038.144097381744
 31
0.0
  0
LINE
  5
8BD
102
{ACAD_REACTORS
102
}
330
4BA
100
AcDbEntity
  8
1
 48
0.3
100
AcDbLine
 10
-919.1928123970756
 20
-1038.144097381744
 30
0.0
 11
-907.3784690591237
 21
-1048.022421707916
 31
0.0
  0
LINE
  5
8BE
102
{ACAD_REACTORS
102
}
330
4BA
100
AcDbEntity
  8
1
 48
0.3
100
AcDbLine
 10
-917.9099131339353
 20
-1036.609767078124
 30
0.0
 11
-906.0955697959907
 21
-1046.488091404281
 31
0.0
  0
LINE
  5
8BF
102
{ACAD_REACTORS
102
}
330
4BA
100
AcDbEntity
  8
0
370
    20
100
AcDbLine
 10
-903.3047705363024
 20
-1046.735961313992
 30
0.0
 11
-918.6480735726036
 21
-1033.906968682597
 31
0.0
  0
LINE
  5
8C0
102
{ACAD_REACTORS
102
}
330
4BA
100
AcDbEntity
  8
0
370
    20
100
AcDbLine
 10
-918.6480735726036
 20
-1033.906968682597
 30
0.0
 11
-919.67439298311
 21
-1035.134432925493
 31
0.0
  0
LINE
  5
8C1
102
{ACAD_REACTORS
102
}
330
4BA
100
AcDbEntity
  8
0
370
    20
100
AcDbLine
 10
-919.67439298311
 20
-1035.134432925493
 30
0.0
 11
-904.3310899468233
 21
-1047.963425556896
 31
0.0
  0
LINE
  5
8C2
102
{ACAD_REACTORS
102
}
330
4BA
100
AcDbEntity
  8
0
370
    20
100
AcDbLine
 10
-904.3310899468233
 20
-1047.963425556896
 30
0.0
 11
-903.3047705363024
 21
-1046.735961313992
 31
0.0
  0
LINE
  5
8C3
102
{ACAD_REACTORS
102
}
330
4BA
100
AcDbEntity
  8
0
  6
DASHED
 62
     3
100
AcDbLine
 10
-905.4543577522891
 20
-1040.264819087366
 30
0.0
 11
-906.48067716281
 21
-1041.492283330263
 31
0.0
  0
LINE
  5
8C4
102
{ACAD_REACTORS
102
}
330
4BA
100
AcDbEntity
  8
0
  6
Continuous
 62
     7
100
AcDbLine
 10
-909.7027706469999
 20
-1038.798195005969
 30
0.0
 11
-909.7028347919731
 21
-1038.798271722473
 31
0.0
  0
LINE
  5
8C5
102
{ACAD_REACTORS
102
}
330
4BA
100
AcDbEntity
  8
CENTER
  6
CENTER
 62
     1
100
AcDbLine
 10
-908.035001604916
 20
-1036.803565611248
 30
0.0
 11
-910.3442202785627
 21
-1039.565360157787
 31
0.0
  0
LINE
  5
8C6
102
{ACAD_REACTORS
102
}
330
4BA
100
AcDbEntity
  8
0
  6
Continuous
 62
     7
100
AcDbLine
 10
-902.7309213099106
 20
-1042.541965407734
 30
0.0
 11
-903.7572407204243
 21
-1043.769429650623
 31
0.0
  0
LINE
  5
8C7
102
{ACAD_REACTORS
102
}
330
4BA
100
AcDbEntity
  8
0
  6
Continuous
 62
     7
100
AcDbLine
 10
-914.6219811630544
 20
-1032.599496118404
 30
0.0
 11
-915.6483005735681
 21
-1033.826960361301
 31
0.0
  0
LINE
  5
8C8
102
{ACAD_REACTORS
102
}
330
4BA
100
AcDbEntity
  8
0
  6
DASHED
 62
     3
100
AcDbLine
 10
-911.8985447206687
 20
-1034.876642438772
 30
0.0
 11
-912.9248641311751
 21
-1036.104106681669
 31
0.0
  0
LINE
  5
8C9
102
{ACAD_REACTORS
102
}
330
4BA
100
AcDbEntity
  8
0
  6
Continuous
 62
     7
100
AcDbLine
 10
-915.6483005735681
 20
-1033.826960361301
 30
0.0
 11
-903.7572407204243
 21
-1043.769429650623
 31
0.0
  0
LINE
  5
8CA
102
{ACAD_REACTORS
102
}
330
4BA
100
AcDbEntity
  8
0
  6
Continuous
 62
     7
100
AcDbLine
 10
-914.6219811630544
 20
-1032.599496118404
 30
0.0
 11
-902.7309213099106
 21
-1042.541965407734
 31
0.0
  0
ARC
  5
8CB
102
{ACAD_REACTORS
102
}
330
4BA
100
AcDbEntity
  8
0
100
AcDbCircle
 10
-903.4894464884019
 20
-1040.142831725898
 30
0.0
 40
3.752776145935058
100
AcDbArc
 50
20.10000888425902
 51
80.09999111574068
  0
LINE
  5
8CC
102
{ACAD_REACTORS
102
}
330
4BA
100
AcDbEntity
  8
0
100
AcDbLine
 10
-899.9652363099412
 20
-1038.853153322707
 30
0.0
 11
-900.4436277327222
 21
-1037.545888137327
 31
0.0
  0
LINE
  5
8CD
102
{ACAD_REACTORS
102
}
330
4BA
100
AcDbEntity
  8
0
100
AcDbLine
 10
-911.4812291203598
 20
-1029.224288758232
 30
0.0
 11
-910.1099086455979
 21
-1029.463622779549
 31
0.0
  0
ARC
  5
8CE
102
{ACAD_REACTORS
102
}
330
4BA
100
AcDbEntity
  8
0
100
AcDbCircle
 10
-912.1264410961994
 20
-1032.921183302584
 30
0.0
 40
3.752776145935058
100
AcDbArc
 50
20.10000888425902
 51
80.09999111574068
  0
ARC
  5
8CF
102
{ACAD_REACTORS
102
}
330
4BA
100
AcDbEntity
  8
0
100
AcDbCircle
 10
-911.9895301171309
 20
-1041.533128646501
 30
0.0
 40
10.46498680114746
100
AcDbArc
 50
29.08557764194599
 51
71.114422358043
  0
LINE
  5
8D0
102
{ACAD_REACTORS
102
}
330
4BA
100
AcDbEntity
  8
0
 48
0.3
100
AcDbLine
 10
-914.4344476416845
 20
-1032.756298480846
 30
0.0
 11
-902.9184548312878
 21
-1042.385163045292
 31
0.0
  0
LINE
  5
8D1
102
{ACAD_REACTORS
102
}
330
4BA
100
AcDbEntity
  8
0
100
AcDbLine
 10
-914.4344476416845
 20
-1032.756298480846
 30
0.0
 11
-911.4812291203598
 21
-1029.224288758232
 31
0.0
  0
LINE
  5
8D2
102
{ACAD_REACTORS
102
}
330
4BA
100
AcDbEntity
  8
0
100
AcDbLine
 10
-911.5554494390926
 20
-1035.163514621941
 30
0.0
 11
-908.6022309177533
 21
-1031.631504899357
 31
0.0
  0
LINE
  5
8D3
102
{ACAD_REACTORS
102
}
330
4BA
100
AcDbEntity
  8
0
100
AcDbLine
 10
-905.797453033887
 20
-1039.977946904182
 30
0.0
 11
-902.8442345125477
 21
-1036.445937181583
 31
0.0
  0
LINE
  5
8D4
102
{ACAD_REACTORS
102
}
330
4BA
100
AcDbEntity
  8
0
100
AcDbLine
 10
-902.9184548312878
 20
-1042.385163045292
 30
0.0
 11
-899.9652363099412
 21
-1038.853153322707
 31
0.0
  0
LINE
  5
8D5
102
{ACAD_REACTORS
102
}
330
4BA
100
AcDbEntity
  8
0
100
AcDbLine
 10
-900.4436277327222
 20
-1037.545888137327
 30
0.0
 11
-910.1099086455979
 21
-1029.463622779549
 31
0.0
  0
LINE
  5
8D6
102
{ACAD_REACTORS
102
}
330
4BA
100
AcDbEntity
  8
0
100
AcDbLine
 10
-912.2261990674342
 20
-1035.580306100645
 30
0.0
 11
-906.0888778529152
 21
-1040.711903153206
 31
0.0
  0
LINE
  5
8D7
102
{ACAD_REACTORS
102
}
330
4BA
100
AcDbEntity
  8
0
100
AcDbLine
 10
-911.6508252035601
 20
-1036.061393324329
 30
0.0
 11
-911.745111843742
 21
-1035.00493223677
 31
0.0
  0
LINE
  5
8D8
102
{ACAD_REACTORS
102
}
330
4BA
100
AcDbEntity
  8
0
100
AcDbLine
 10
-906.6642517167602
 20
-1040.230815929513
 30
0.0
 11
-905.6077906292303
 21
-1040.136529289332
 31
0.0
  0
LINE
  5
8D9
102
{ACAD_REACTORS
102
}
330
4BA
100
AcDbEntity
  8
0
100
AcDbLine
 10
-917.6670437027315
 20
-1054.559234143453
 30
0.0
 11
-919.3573814427909
 21
-1054.710092767775
 31
0.0
  0
LINE
  5
8DA
102
{ACAD_REACTORS
102
}
330
4BA
100
AcDbEntity
  8
0
100
AcDbLine
 10
-923.804364917265
 20
-1049.427637090907
 30
0.0
 11
-923.6535062929652
 21
-1051.117974830959
 31
0.0
  0
LINE
  5
8DB
102
{ACAD_REACTORS
102
}
330
4BA
100
AcDbEntity
  8
0
100
AcDbLine
 10
-917.6670437027315
 20
-1054.559234143453
 30
0.0
 11
-923.804364917265
 21
-1049.427637090907
 31
0.0
  0
LINE
  5
8DC
102
{ACAD_REACTORS
102
}
330
4BA
100
AcDbEntity
  8
0
100
AcDbLine
 10
-919.3573814427909
 20
-1054.710092767775
 30
0.0
 11
-923.6535062929652
 21
-1051.117974830959
 31
0.0
  0
LINE
  5
8DD
102
{ACAD_REACTORS
102
}
330
4BA
100
AcDbEntity
  8
0
100
AcDbLine
 10
-911.6508252035601
 20
-1036.061393324329
 30
0.0
 11
-923.7100782770831
 21
-1050.484098178458
 31
0.0
  0
LINE
  5
8DE
102
{ACAD_REACTORS
102
}
330
4BA
100
AcDbEntity
  8
0
100
AcDbLine
 10
-911.745111843742
 20
-1035.00493223677
 30
0.0
 11
-923.804364917265
 21
-1049.427637090907
 31
0.0
  0
LINE
  5
8DF
102
{ACAD_REACTORS
102
}
330
4BA
100
AcDbEntity
  8
0
100
AcDbLine
 10
-905.6077906292303
 20
-1040.136529289332
 30
0.0
 11
-917.6670437027315
 21
-1054.559234143453
 31
0.0
  0
LINE
  5
8E0
102
{ACAD_REACTORS
102
}
330
4BA
100
AcDbEntity
  8
0
100
AcDbLine
 10
-906.6642517167602
 20
-1040.230815929513
 30
0.0
 11
-918.7235047902686
 21
-1054.65352078365
 31
0.0
  0
LINE
  5
8E1
102
{ACAD_REACTORS
102
}
330
4BA
100
AcDbEntity
  8
0
  6
CENTER1
 62
     4
370
    20
100
AcDbLine
 10
-904.5796469877569
 20
-1032.671007856166
 30
0.0
 11
-917.37319712112
 21
-1047.971922140438
 31
0.0
  0
ARC
  5
8E2
102
{ACAD_REACTORS
102
}
330
4BA
100
AcDbEntity
  8
0
370
    20
100
AcDbCircle
 10
-930.7934404517109
 20
-1017.253287319982
 30
0.0
 40
3.0
100
AcDbArc
 50
230.0999999999925
 51
175.0999999997762
  0
ARC
  5
8E3
102
{ACAD_REACTORS
102
}
330
4BA
100
AcDbEntity
  8
0
370
    20
100
AcDbCircle
 10
-930.7934404517109
 20
-1017.253287319982
 30
0.0
 40
4.5
100
AcDbArc
 50
230.0999999999925
 51
175.099999999776
  0
LINE
  5
8E4
102
{ACAD_REACTORS
102
}
330
4BA
100
AcDbEntity
  8
0
  6
CENTER
 62
     4
370
    20
100
AcDbLine
 10
-925.5127121401783
 20
-1021.668661534801
 30
0.0
 11
-936.2463050384576
 21
-1012.69398483877
 31
0.0
  0
LINE
  5
8E5
102
{ACAD_REACTORS
102
}
330
4BA
100
AcDbEntity
  8
0
370
    20
100
AcDbLine
 10
-972.0382213844969
 20
-988.633048924683
 30
0.0
 11
-933.6799637937693
 21
-1020.705530503154
 31
0.0
  0
LINE
  5
8E6
102
{ACAD_REACTORS
102
}
330
4BA
100
AcDbEntity
  8
0
370
    20
100
AcDbLine
 10
-969.9252992094371
 20
-988.4444756443118
 30
0.0
 11
-932.7177893463995
 21
-1019.554782775405
 31
0.0
  0
ARC
  5
8E7
102
{ACAD_REACTORS
102
}
330
4BA
100
AcDbEntity
  8
0
370
    20
100
AcDbCircle
 10
-930.7934404517109
 20
-1017.253287319982
 30
0.0
 40
4.5
100
AcDbArc
 50
285.1000000002033
 51
230.0999999999925
  0
ARC
  5
8E8
102
{ACAD_REACTORS
102
}
330
4BA
100
AcDbEntity
  8
0
370
    20
100
AcDbCircle
 10
-930.7934404517109
 20
-1017.253287319982
 30
0.0
 40
3.0
100
AcDbArc
 50
285.1000000002049
 51
230.0999999999925
  0
LINE
  5
8E9
102
{ACAD_REACTORS
102
}
330
4BA
100
AcDbEntity
  8
0
  6
CENTER
 62
     4
370
    20
100
AcDbLine
 10
-936.0741687632217
 20
-1012.837913105148
 30
0.0
 11
-925.3405758649496
 21
-1021.812589801179
 31
0.0
  0
CIRCLE
  5
8EA
102
{ACAD_REACTORS
102
}
330
4BA
100
AcDbEntity
  8
0
370
    20
100
AcDbCircle
 10
-930.7934404517109
 20
-1017.253287319982
 30
0.0
 40
2.5
  0
ARC
  5
8EB
330
4BA
100
AcDbEntity
  8
0
  6
PHANTOM
 62
     6
370
    20
100
AcDbCircle
 10
-605.7039893623914
 20
-1287.115008930203
 30
0.0
 40
400.0
100
AcDbArc
 50
90.0
 51
140.1
  0
ARC
  5
8EC
330
4BA
100
AcDbEntity
  8
0
  6
PHANTOM
 62
     6
370
    20
100
AcDbCircle
 10
-605.7039893623914
 20
-1287.115008930203
 30
0.0
 40
418.0
100
AcDbArc
 50
90.0
 51
140.1000000000008
  0
LINE
  5
8ED
330
4BA
100
AcDbEntity
  8
0
  6
PHANTOM
 62
     6
370
    20
100
AcDbLine
 10
-912.5700500885177
 20
-1030.535156302547
 30
0.0
 11
-926.379022821191
 21
-1018.989062934299
 31
0.0
  0
LINE
  5
8EE
330
4BA
100
AcDbEntity
  8
0
  6
PHANTOM
 62
     6
370
    20
100
AcDbLine
 10
-605.7039893623914
 20
-887.1150089302027
 30
0.0
 11
-605.7039893623914
 21
-869.1150089302027
 31
0.0
  0
ARC
  5
8EF
330
4BA
100
AcDbEntity
  8
0
  6
PHANTOM
 62
     6
370
    20
100
AcDbCircle
 10
-930.7934404516964
 20
-1017.253287319974
 30
0.0
 40
357.2507533005789
100
AcDbArc
 50
294.4980269192978
 51
24.49802691929787
  0
DIMENSION
  5
8F0
330
4BA
100
AcDbEntity
  8
0
370
    20
100
AcDbDimension
  2
*D26
 10
-495.7616256592632
 20
-1191.428698529129
 30
0.0
 11
-533.7934728199175
 21
-1015.545725024633
 31
0.0
 70
    33
  1
開口350
 71
     5
 42
346.7322355987011
  3
ASKSTANDARD2
100
AcDbAlignedDimension
 13
-944.0753094342617
 23
-1035.47667768316
 33
0.0
 14
-782.6551620619316
 24
-1342.342738409283
 34
0.0
1001
ACAD
1000
DSTYLE
1002
{
1070
    40
1040
20.0
1070
    77
1070
     1
1070
    78
1070
     8
1070
   147
1040
1.0
1070
   176
1070
     7
1070
   177
1070
     7
1070
   178
1070
     7
1070
   179
1070
     1
1070
   271
1070
     1
1070
   272
1070
     1
1070
   288
1070
     0
1070
   289
1070
     3
1070
   340
1005
4D2
1070
   341
1005
53D
1070
   342
1005
53D
1002
}
  0
LINE
  5
8FD
330
4BA
100
AcDbEntity
  8
_-0
  6
Continuous
370
    20
100
AcDbLine
 10
104.2479723200777
 20
-1501.729228753611
 30
0.0
 11
104.2479723200777
 21
-1430.100225373055
 31
0.0
  0
LINE
  5
8FE
330
4BA
100
AcDbEntity
  8
_-0
  6
Continuous
370
    20
100
AcDbLine
 10
181.1479723200719
 20
-1501.729228753611
 30
0.0
 11
181.1479723200719
 21
-1430.100225373055
 31
0.0
  0
LINE
  5
8FF
330
4BA
100
AcDbEntity
  8
_-0
  6
Continuous
370
    20
100
AcDbLine
 10
258.0479723200806
 20
-1501.729228753611
 30
0.0
 11
258.0479723200806
 21
-1430.100225373055
 31
0.0
  0
LINE
  5
900
330
4BA
100
AcDbEntity
  8
_-0
  6
Continuous
370
    20
100
AcDbLine
 10
334.9479723200748
 20
-1501.729228753611
 30
0.0
 11
334.9479723200748
 21
-1430.100225373055
 31
0.0
  0
LINE
  5
901
330
4BA
100
AcDbEntity
  8
_-0
  6
Continuous
370
    20
100
AcDbLine
 10
411.8479723200835
 20
-1501.729228753611
 30
0.0
 11
411.8479723200835
 21
-1430.100225373055
 31
0.0
  0
LINE
  5
902
330
4BA
100
AcDbEntity
  8
_-0
  6
Continuous
370
    20
100
AcDbLine
 10
488.7479723200777
 20
-1501.729228753611
 30
0.0
 11
488.7479723200777
 21
-1430.100225373055
 31
0.0
  0
LINE
  5
903
330
4BA
100
AcDbEntity
  8
_-0
  6
Continuous
100
AcDbLine
 10
334.9479723200748
 20
-965.5748873367702
 30
0.0
 11
334.9479723200748
 21
-953.3557381465071
 31
0.0
  0
LINE
  5
904
330
4BA
100
AcDbEntity
  8
_-0
  6
Continuous
100
AcDbLine
 10
488.7479723200777
 20
-965.5748873367702
 30
0.0
 11
488.7479723200777
 21
-953.3557381465071
 31
0.0
  0
LINE
  5
905
330
4BA
100
AcDbEntity
  8
_-0
  6
Continuous
100
AcDbLine
 10
411.8479723200835
 20
-965.5748873367702
 30
0.0
 11
411.8479723200835
 21
-953.3557381465071
 31
0.0
  0
LINE
  5
906
330
4BA
100
AcDbEntity
  8
_-0
  6
Continuous
100
AcDbLine
 10
258.0479723200806
 20
-965.5748873367702
 30
0.0
 11
258.0479723200806
 21
-953.3557381465071
 31
0.0
  0
LINE
  5
907
330
4BA
100
AcDbEntity
  8
_-0
  6
Continuous
100
AcDbLine
 10
181.1479723200719
 20
-965.5748873367702
 30
0.0
 11
181.1479723200719
 21
-953.3557381465071
 31
0.0
  0
LINE
  5
908
330
4BA
100
AcDbEntity
  8
_-0
  6
Continuous
100
AcDbLine
 10
104.2479723200777
 20
-965.5748873367702
 30
0.0
 11
104.2479723200777
 21
-953.3557381465071
 31
0.0
  0
TEXT
  5
909
330
4BA
100
AcDbEntity
  8
N文字
 62
     7
100
AcDbText
 10
1511.508580521083
 20
-2107.287941438015
 30
0.0
 40
30.61799999999999
  1
DA*6002*HW-0154-*021
  7
MS　明朝
100
AcDbText
  0
DIMENSION
  5
90A
330
4BA
100
AcDbEntity
  8
0
370
    20
100
AcDbDimension
  2
*D27
 10
-919.8291975312256
 20
-1006.478653203008
 30
0.0
 11
-954.7890273772573
 21
-1227.432157594629
 31
0.0
 70
    34
 71
     5
 42
0.8744099552491658
  3
ASKSTANDARD2
100
AcDb2LineAngularDimension
 13
-1877.658106547682
 23
-1342.342738409279
 33
0.0
 14
-672.4115995684006
 24
-1342.342738409279
 34
0.0
 15
-1200.655162061925
 25
-1342.342738409279
 35
0.0
 16
-984.4283699270838
 26
-1277.471591899676
 36
0.0
1001
ACAD
1000
DSTYLE
1002
{
1070
    40
1040
20.0
1070
    77
1070
     1
1070
    78
1070
     8
1070
   147
1040
1.0
1070
   176
1070
     7
1070
   177
1070
     7
1070
   178
1070
     7
1070
   179
1070
     1
1070
   271
1070
     1
1070
   272
1070
     1
1070
   288
1070
     0
1070
   289
1070
     3
1070
   340
1005
4D2
1070
   341
1005
53D
1070
   342
1005
53D
1002
}
  0
DIMENSION
  5
919
330
4BA
100
AcDbEntity
  8
0
370
    20
100
AcDbDimension
  2
*D28
 10
-1369.324092615005
 20
307.4684756479401
 30
0.0
 11
-1344.957189738213
 21
438.6503903534835
 31
0.0
 70
    33
 71
     5
 42
17.99999999998752
  3
ASKSTANDARD2
100
AcDbAlignedDimension
 13
-1366.873451990072
 23
289.6360792714859
 33
0.0
 14
-1369.324092615005
 24
307.4684756479401
 34
0.0
1001
ACAD
1000
DSTYLE
1002
{
1070
    40
1040
20.0
1070
    77
1070
     1
1070
    78
1070
     8
1070
   147
1040
1.0
1070
   176
1070
     7
1070
   177
1070
     7
1070
   178
1070
     7
1070
   179
1070
     1
1070
   271
1070
     1
1070
   272
1070
     1
1070
   288
1070
     0
1070
   289
1070
     3
1070
   340
1005
4D2
1070
   341
1005
53D
1070
   342
1005
53D
1002
}
  0
DIMENSION
  5
926
330
4BA
100
AcDbEntity
  8
0
370
    20
100
AcDbDimension
  2
*D29
 10
-1369.324075023342
 20
-920.1354092799979
 30
0.0
 11
-1344.957172146544
 21
-788.9534945744556
 31
0.0
 70
    33
 71
     5
 42
18.00000000000026
  3
ASKSTANDARD2
100
AcDbAlignedDimension
 13
-1366.87345199005
 23
-937.9678080740196
 33
0.0
 14
-1369.324092614985
 24
-920.1354116975526
 34
0.0
1001
ACAD
1000
DSTYLE
1002
{
1070
    40
1040
20.0
1070
    77
1070
     1
1070
    78
1070
     8
1070
   147
1040
1.0
1070
   176
1070
     7
1070
   177
1070
     7
1070
   178
1070
     7
1070
   179
1070
     1
1070
   271
1070
     1
1070
   272
1070
     1
1070
   288
1070
     0
1070
   289
1070
     3
1070
   340
1005
4D2
1070
   341
1005
53D
1070
   342
1005
53D
1002
}
  0
LINE
  5
935
330
4BA
100
AcDbEntity
  8
0
  6
CENTER
 62
     4
370
    20
100
AcDbLine
 10
-1480.286483915988
 20
333.5893304618166
 30
0.0
 11
-1350.655162061932
 21
-114.7388510637829
 31
0.0
  0
LINE
  5
936
330
4BA
100
AcDbEntity
  8
0
  6
CENTER
 62
     4
370
    20
100
AcDbLine
 10
-1073.603729794467
 20
324.6668170572593
 30
0.0
 11
-1200.655162061932
 21
-114.7388510637829
 31
0.0
  0
DIMENSION
  5
937
330
4BA
100
AcDbEntity
  8
0
370
    20
100
AcDbDimension
  2
*D30
 10
-367.2280385784579
 20
-1342.342738409279
 30
0.0
 11
-1616.723461098722
 21
-1142.307464336902
 31
0.0
 70
    34
 71
     5
 42
1.289328849062158
  3
ASKSTANDARD2
100
AcDb2LineAngularDimension
 13
-1480.286483915988
 23
-894.0145568836797
 33
0.0
 14
-1350.655162061932
 24
-1342.342738409279
 34
0.0
 15
-2378.224563083717
 25
-1342.342738409279
 35
0.0
 16
-1538.152488767359
 26
-1124.751099590869
 36
0.0
1001
ACAD
1000
DSTYLE
1002
{
1070
    40
1040
20.0
1070
    77
1070
     1
1070
    78
1070
     8
1070
   147
1040
1.0
1070
   176
1070
     7
1070
   177
1070
     7
1070
   178
1070
     7
1070
   179
1070
     1
1070
   271
1070
     1
1070
   272
1070
     1
1070
   288
1070
     0
1070
   289
1070
     3
1070
   340
1005
4D2
1070
   341
1005
53D
1070
   342
1005
53D
1002
}
  0
ARC
  5
944
330
4BA
100
AcDbEntity
  8
0
370
    20
100
AcDbCircle
 10
-1350.655162061932
 20
-1342.342738409279
 30
0.0
 40
418.0
100
AcDbArc
 50
106.1268985442783
 51
180.0
  0
ARC
  5
945
330
4BA
100
AcDbEntity
  8
0
370
    20
100
AcDbCircle
 10
-1350.655162061932
 20
-1342.342738409279
 30
0.0
 40
400.0
100
AcDbArc
 50
106.1268985442783
 51
180.0
  0
LINE
  5
946
330
4BA
100
AcDbEntity
  8
0
  6
CENTER
 62
     4
370
    20
100
AcDbLine
 10
-1480.286483915988
 20
-894.0145568836797
 30
0.0
 11
-1350.655162061932
 21
-1342.342738409279
 31
0.0
  0
ARC
  5
947
330
4BA
100
AcDbEntity
  8
0
370
    20
100
AcDbCircle
 10
-1275.655162061932
 20
-1601.729228753611
 30
0.0
 40
688.0
100
AcDbArc
 50
73.45989334548193
 51
106.1268985442783
  0
ARC
  5
948
330
4BA
100
AcDbEntity
  8
0
370
    20
100
AcDbCircle
 10
-1275.655162061932
 20
-1601.729228753611
 30
0.0
 40
670.0
100
AcDbArc
 50
73.45989334548192
 51
106.1268985442783
  0
DIMENSION
  5
949
330
4BA
100
AcDbEntity
  8
0
370
    20
100
AcDbDimension
  2
*D31
 10
-1350.655162061932
 20
-1342.342738409279
 30
0.0
 11
-1275.655162061932
 21
-1005.837158696218
 31
0.0
 70
    34
 71
     5
 42
0.5629349554654768
  3
ASKSTANDARD2
100
AcDb2LineAngularDimension
 13
-1073.603729794467
 23
-902.937070288237
 33
0.0
 14
-1200.655162061932
 24
-1342.342738409279
 34
0.0
 15
-1480.286483915988
 25
-894.0145568836797
 35
0.0
 16
-1224.105365587333
 26
-1053.902713200922
 36
0.0
1001
ACAD
1000
DSTYLE
1002
{
1070
    40
1040
20.0
1070
    77
1070
     1
1070
    78
1070
     8
1070
   147
1040
1.0
1070
   176
1070
     7
1070
   177
1070
     7
1070
   178
1070
     7
1070
   179
1070
     1
1070
   271
1070
     1
1070
   272
1070
     1
1070
   288
1070
     0
1070
   289
1070
     3
1070
   340
1005
4D2
1070
   341
1005
53D
1070
   342
1005
53D
1002
}
  0
ARC
  5
956
330
4BA
100
AcDbEntity
  8
0
370
    20
100
AcDbCircle
 10
-1200.655162061932
 20
-1342.342738409279
 30
0.0
 40
418.0
100
AcDbArc
 50
0.0
 51
74.56523587414684
  0
ARC
  5
957
330
4BA
100
AcDbEntity
  8
0
370
    20
100
AcDbCircle
 10
-1200.655162061932
 20
-1342.342738409279
 30
0.0
 40
400.0
100
AcDbArc
 50
0.0
 51
74.56523587414688
  0
LINE
  5
958
330
4BA
100
AcDbEntity
  8
0
  6
CENTER
 62
     4
370
    20
100
AcDbLine
 10
-1073.603729794467
 20
-902.937070288237
 30
0.0
 11
-1200.655162061932
 21
-1342.342738409279
 31
0.0
  0
DIMENSION
  5
959
330
4BA
100
AcDbEntity
  8
0
370
    20
100
AcDbDimension
  2
*D32
 10
-1200.655162061932
 20
-1342.342738409279
 30
0.0
 11
-942.0813547539306
 21
-1147.941967629585
 31
0.0
 70
    34
 71
     5
 42
1.289328849062158
  3
ASKSTANDARD2
100
AcDb2LineAngularDimension
 13
-1877.658106547682
 23
-1342.342738409279
 33
0.0
 14
-672.4115995684006
 24
-1342.342738409279
 34
0.0
 15
-1073.603729794467
 25
-902.937070288237
 35
0.0
 16
-948.0692920174722
 26
-1226.569934361854
 36
0.0
1001
ACAD
1000
DSTYLE
1002
{
1070
    40
1040
20.0
1070
    77
1070
     1
1070
    78
1070
     8
1070
   147
1040
1.0
1070
   176
1070
     7
1070
   177
1070
     7
1070
   178
1070
     7
1070
   179
1070
     1
1070
   271
1070
     1
1070
   272
1070
     1
1070
   288
1070
     0
1070
   289
1070
     3
1070
   340
1005
4D2
1070
   341
1005
53D
1070
   342
1005
53D
1002
}
  0
ARC
  5
966
330
4BA
100
AcDbEntity
  8
0
370
    20
100
AcDbCircle
 10
-1275.655162061932
 20
-374.1130980506423
 30
0.0
 40
670.0
100
AcDbArc
 50
73.87237978683925
 51
106.1276202131608
  0
ARC
  5
967
330
4BA
100
AcDbEntity
  8
0
370
    20
100
AcDbCircle
 10
-1350.655162061932
 20
-114.7388510637829
 30
0.0
 40
418.0
100
AcDbArc
 50
106.1276202131607
 51
180.0
  0
ARC
  5
968
330
4BA
100
AcDbEntity
  8
0
370
    20
100
AcDbCircle
 10
-1275.655162061932
 20
-374.1130980506423
 30
0.0
 40
688.0
100
AcDbArc
 50
73.87237978683928
 51
106.1276202131608
  0
ARC
  5
969
330
4BA
100
AcDbEntity
  8
0
370
    20
100
AcDbCircle
 10
-1200.655162061932
 20
-114.7388510637829
 30
0.0
 40
418.0
100
AcDbArc
 50
0.0
 51
73.8723797868393
  0
DIMENSION
  5
96A
330
4BA
100
AcDbEntity
  8
0
370
    20
100
AcDbDimension
  2
*D33
 10
-1350.655162061932
 20
-114.7388510637829
 30
0.0
 11
-1275.655162061932
 21
224.4080526977192
 31
0.0
 70
    34
 71
     5
 42
0.5629349554654768
  3
ASKSTANDARD2
100
AcDb2LineAngularDimension
 13
-1073.603729794467
 23
324.6668170572593
 33
0.0
 14
-1200.655162061932
 24
-114.7388510637829
 34
0.0
 15
-1480.286483915988
 25
333.5893304618166
 35
0.0
 16
-1223.857913394175
 26
176.3308813794156
 36
0.0
1001
ACAD
1000
DSTYLE
1002
{
1070
    40
1040
20.0
1070
    77
1070
     1
1070
    78
1070
     8
1070
   147
1040
1.0
1070
   176
1070
     7
1070
   177
1070
     7
1070
   178
1070
     7
1070
   271
1070
     1
1070
   272
1070
     1
1070
   288
1070
     0
1070
   289
1070
     3
1070
   340
1005
4D2
1070
   341
1005
53D
1070
   342
1005
53D
1002
}
  0
DIMENSION
  5
979
330
4BA
100
AcDbEntity
  8
0
370
    20
100
AcDbDimension
  2
*D34
 10
-1350.655162061932
 20
-114.7388510637829
 30
0.0
 11
-1614.472010369795
 21
83.60373896749748
 31
0.0
 70
    34
 71
     5
 42
1.289328849062158
  3
ASKSTANDARD2
100
AcDb2LineAngularDimension
 13
-1840.215098644654
 23
-114.7388510637829
 33
0.0
 14
-709.8342237254146
 24
-114.7388510637829
 34
0.0
 15
-1480.286483915988
 25
333.5893304618166
 35
0.0
 16
-1536.313765639064
 26
100.7189398441041
 36
0.0
1001
ACAD
1000
DSTYLE
1002
{
1070
    40
1040
20.0
1070
    77
1070
     1
1070
    78
1070
     8
1070
   147
1040
1.0
1070
   176
1070
     7
1070
   177
1070
     7
1070
   178
1070
     7
1070
   271
1070
     1
1070
   272
1070
     1
1070
   288
1070
     0
1070
   289
1070
     3
1070
   340
1005
4D2
1070
   341
1005
53D
1070
   342
1005
53D
1002
}
  0
DIMENSION
  5
986
330
4BA
100
AcDbEntity
  8
0
370
    20
100
AcDbDimension
  2
*D35
 10
-1200.655162061932
 20
-114.7388510637829
 30
0.0
 11
-933.6995000705871
 21
85.96355957638077
 31
0.0
 70
    34
 71
     5
 42
1.289328849062158
  3
ASKSTANDARD2
100
AcDb2LineAngularDimension
 13
-1840.215098644654
 23
-114.7388510637829
 33
0.0
 14
-709.8342237254146
 24
-114.7388510637829
 34
0.0
 15
-1073.603729794467
 25
324.6668170572593
 35
0.0
 16
-938.5364678856446
 26
5.403325585673656
 36
0.0
1001
ACAD
1000
DSTYLE
1002
{
1070
    40
1040
20.0
1070
    77
1070
     1
1070
    78
1070
     8
1070
   147
1040
1.0
1070
   176
1070
     7
1070
   177
1070
     7
1070
   178
1070
     7
1070
   271
1070
     1
1070
   272
1070
     1
1070
   288
1070
     0
1070
   289
1070
     3
1070
   340
1005
4D2
1070
   341
1005
53D
1070
   342
1005
53D
1002
}
  0
ENDBLK
  5
994
330
4BA
100
AcDbEntity
  8
0
100
AcDbBlockEnd
  0
BLOCK
  5
538
330
537
100
AcDbEntity
  8
0
370
    20
100
AcDbBlockBegin
  2
*D3
 70
     1
 10
0.0
 20
0.0
 30
0.0
  3
*D3
  1

  0
LINE
  5
539
330
537
100
AcDbEntity
  8
0
 62
     7
370
    -2
100
AcDbLine
 10
-1245.655162061932
 20
295.8746585918852
 30
0.0
 11
-541.9668962851465
 21
295.8746585918852
 31
0.0
  0
LINE
  5
53A
330
537
100
AcDbEntity
  8
0
 62
     7
370
    -2
100
AcDbLine
 10
-613.4572374373856
 20
-274.1253414081148
 30
0.0
 11
-541.9668962851465
 21
-274.1253414081148
 31
0.0
  0
LINE
  5
53B
330
537
100
AcDbEntity
  8
0
 62
     7
370
    -2
100
AcDbLine
 10
-571.9668962851465
 20
255.8746585918852
 30
0.0
 11
-571.9668962851465
 21
-234.1253414081148
 31
0.0
  0
INSERT
  5
53C
330
537
100
AcDbEntity
  8
0
 62
     7
370
    -2
100
AcDbBlockReference
  2
_OPEN
 10
-571.9668962851465
 20
295.8746585918852
 30
0.0
 41
40.0
 42
40.0
 43
40.0
 50
90.0
  0
INSERT
  5
543
330
537
100
AcDbEntity
  8
0
 62
     7
370
    -2
100
AcDbBlockReference
  2
_OPEN
 10
-571.9668962851465
 20
-274.1253414081148
 30
0.0
 41
40.0
 42
40.0
 43
40.0
 50
270.0
  0
MTEXT
  5
544
330
537
100
AcDbEntity
  8
0
 62
     7
370
    20
100
AcDbMText
 10
-613.9668962851465
 20
10.87465859188524
 30
0.0
 40
44.0
 41
0.0
 71
     5
 72
     1
  1
\A1;570
  7
MS　明朝
 11
0.0
 21
1.0
 31
0.0
 73
     1
 44
1.0
  0
POINT
  5
545
330
537
100
AcDbEntity
  8
Defpoints
 62
     0
100
AcDbPoint
 10
-1275.655162061932
 20
295.8746585918852
 30
0.0
  0
POINT
  5
546
330
537
100
AcDbEntity
  8
Defpoints
 62
     0
100
AcDbPoint
 10
-643.4572374373856
 20
-274.1253414081148
 30
0.0
  0
POINT
  5
547
330
537
100
AcDbEntity
  8
Defpoints
 62
     0
100
AcDbPoint
 10
-571.9668962851465
 20
-274.1253414081148
 30
0.0
  0
ENDBLK
  5
548
330
537
100
AcDbEntity
  8
0
370
    20
100
AcDbBlockEnd
  0
BLOCK
  5
53E
330
53D
100
AcDbEntity
  8
0
370
    -1
100
AcDbBlockBegin
  2
_OPEN
 70
     0
 10
0.0
 20
0.0
 30
0.0
  3
_OPEN
  1

  0
LINE
  5
53F
330
53D
100
AcDbEntity
  8
0
  6
ByBlock
 62
     0
370
    -1
100
AcDbLine
 10
-1.0
 20
0.1666666666666667
 30
0.0
 11
0.0
 21
0.0
 31
0.0
  0
LINE
  5
540
330
53D
100
AcDbEntity
  8
0
  6
ByBlock
 62
     0
370
    -1
100
AcDbLine
 10
0.0
 20
0.0
 30
0.0
 11
-1.0
 21
-0.1666666666666667
 31
0.0
  0
LINE
  5
541
330
53D
100
AcDbEntity
  8
0
  6
ByBlock
 62
     0
370
    -1
100
AcDbLine
 10
0.0
 20
0.0
 30
0.0
 11
-1.0
 21
0.0
 31
0.0
  0
ENDBLK
  5
542
330
53D
100
AcDbEntity
  8
0
370
    -1
100
AcDbBlockEnd
  0
BLOCK
  5
54C
330
54B
100
AcDbEntity
  8
0
370
    20
100
AcDbBlockBegin
  2
*D5
 70
     1
 10
0.0
 20
0.0
 30
0.0
  3
*D5
  1

  0
LINE
  5
54D
330
54B
100
AcDbEntity
  8
0
 62
     7
370
    -2
100
AcDbLine
 10
-1750.655162061925
 20
-304.1253414081002
 30
0.0
 11
-1750.655162061925
 21
-475.348857506644
 31
0.0
  0
LINE
  5
54E
330
54B
100
AcDbEntity
  8
0
 62
     7
370
    -2
100
AcDbLine
 10
-800.6551620619393
 20
-304.1253414081002
 30
0.0
 11
-800.6551620619393
 21
-475.348857506644
 31
0.0
  0
LINE
  5
54F
330
54B
100
AcDbEntity
  8
0
 62
     7
370
    -2
100
AcDbLine
 10
-1710.655162061925
 20
-445.348857506644
 30
0.0
 11
-840.6551620619393
 21
-445.348857506644
 31
0.0
  0
INSERT
  5
550
330
54B
100
AcDbEntity
  8
0
 62
     7
370
    -2
100
AcDbBlockReference
  2
_OPEN
 10
-1750.655162061925
 20
-445.348857506644
 30
0.0
 41
40.0
 42
40.0
 43
40.0
 50
180.0
  0
INSERT
  5
551
330
54B
100
AcDbEntity
  8
0
 62
     7
370
    -2
100
AcDbBlockReference
  2
_OPEN
 10
-800.6551620619393
 20
-445.348857506644
 30
0.0
 41
40.0
 42
40.0
 43
40.0
  0
MTEXT
  5
552
330
54B
100
AcDbEntity
  8
0
 62
     7
370
    20
100
AcDbMText
 10
-1275.655162061932
 20
-403.348857506644
 30
0.0
 40
44.0
 41
0.0
 71
     5
 72
     1
  1
\A1;950
  7
MS　明朝
 73
     1
 44
1.0
  0
POINT
  5
553
330
54B
100
AcDbEntity
  8
Defpoints
 62
     0
100
AcDbPoint
 10
-1750.655162061925
 20
-274.1253414081002
 30
0.0
  0
POINT
  5
554
330
54B
100
AcDbEntity
  8
Defpoints
 62
     0
100
AcDbPoint
 10
-800.6551620619393
 20
-274.1253414081002
 30
0.0
  0
POINT
  5
555
330
54B
100
AcDbEntity
  8
Defpoints
 62
     0
100
AcDbPoint
 10
-800.6551620619393
 20
-445.348857506644
 30
0.0
  0
ENDBLK
  5
556
330
54B
100
AcDbEntity
  8
0
370
    20
100
AcDbBlockEnd
  0
BLOCK
  5
55B
330
55A
100
AcDbEntity
  8
0
370
    20
100
AcDbBlockBegin
  2
*D6
 70
     1
 10
0.0
 20
0.0
 30
0.0
  3
*D6
  1

  0
LINE
  5
55C
330
55A
100
AcDbEntity
  8
0
 62
     7
370
    -2
100
AcDbLine
 10
-1592.938806670149
 20
151.5291258980722
 30
0.0
 11
-1410.378776965965
 21
-49.10302928547119
 31
0.0
  0
MTEXT
  5
55D
330
55A
100
AcDbEntity
  8
0
 62
     7
370
    20
100
AcDbMText
 10
-1434.316203757589
 20
39.61022348174298
 30
0.0
 40
44.0
 41
0.0
 71
     5
 72
     1
  1
\A1;R400
  7
MS　明朝
 11
0.673010123911404
 21
-0.7396332693387695
 31
0.0
 73
     1
 44
1.0
  0
INSERT
  5
55E
330
55A
100
AcDbEntity
  8
0
 62
     7
370
    -2
100
AcDbBlockReference
  2
_OPEN
 10
-1619.859211626605
 20
181.114456671623
 30
0.0
 41
40.0
 42
40.0
 43
40.0
 50
132.299814889205
  0
POINT
  5
55F
330
55A
100
AcDbEntity
  8
Defpoints
 62
     0
100
AcDbPoint
 10
-1619.859211626605
 20
181.114456671623
 30
0.0
  0
POINT
  5
560
330
55A
100
AcDbEntity
  8
Defpoints
 62
     0
100
AcDbPoint
 10
-1350.655162062034
 20
-114.7388510638957
 30
0.0
  0
ENDBLK
  5
561
330
55A
100
AcDbEntity
  8
0
370
    20
100
AcDbBlockEnd
  0
BLOCK
  5
564
330
563
100
AcDbEntity
  8
0
370
    20
100
AcDbBlockBegin
  2
*D7
 70
     1
 10
0.0
 20
0.0
 30
0.0
  3
*D7
  1

  0
LINE
  5
565
330
563
100
AcDbEntity
  8
0
 62
     7
370
    -2
100
AcDbLine
 10
-1361.427583934659
 20
250.008531768227
 30
0.0
 11
-1326.570065402609
 21
-3.636609358846457
 31
0.0
  0
MTEXT
  5
566
330
563
100
AcDbEntity
  8
0
 62
     7
370
    20
100
AcDbMText
 10
-1296.087784664003
 20
83.04598508154146
 30
0.0
 40
44.0
 41
0.0
 71
     5
 72
     1
  1
\A1;R670
  7
MS　明朝
 11
0.1361467013853134
 21
-0.9906886875814714
 31
0.0
 73
     1
 44
1.0
  0
INSERT
  5
567
330
563
100
AcDbEntity
  8
0
 62
     7
370
    -2
100
AcDbBlockReference
  2
_OPEN
 10
-1366.873451990072
 20
289.6360792714859
 30
0.0
 41
40.0
 42
40.0
 43
40.0
 50
97.82493329317307
  0
POINT
  5
568
330
563
100
AcDbEntity
  8
Defpoints
 62
     0
100
AcDbPoint
 10
-1366.873451990072
 20
289.6360792714859
 30
0.0
  0
POINT
  5
569
330
563
100
AcDbEntity
  8
Defpoints
 62
     0
100
AcDbPoint
 10
-1275.65516206191
 20
-374.1253414081148
 30
0.0
  0
ENDBLK
  5
56A
330
563
100
AcDbEntity
  8
0
370
    20
100
AcDbBlockEnd
  0
BLOCK
  5
572
330
571
100
AcDbEntity
  8
0
370
    20
100
AcDbBlockBegin
  2
*D8
 70
     1
 10
0.0
 20
0.0
 30
0.0
  3
*D8
  1

  0
LINE
  5
573
330
571
100
AcDbEntity
  8
0
 62
     7
370
    -2
100
AcDbLine
 10
-752.6551620619248
 20
-274.1253414081148
 30
0.0
 11
-643.4572374373856
 21
-274.1253414081148
 31
0.0
  0
LINE
  5
574
330
571
100
AcDbEntity
  8
0
 62
     7
370
    -2
100
AcDbLine
 10
-706.505800962932
 20
-114.7388510637829
 30
0.0
 11
-643.4572374373856
 21
-114.7388510637829
 31
0.0
  0
LINE
  5
575
330
571
100
AcDbEntity
  8
0
 62
     7
370
    -2
100
AcDbLine
 10
-673.4572374373856
 20
-114.7388510637829
 30
0.0
 11
-673.4572374373856
 21
116.6034562076084
 31
0.0
  0
LINE
  5
576
330
571
100
AcDbEntity
  8
0
 62
     7
370
    -2
100
AcDbLine
 10
-673.4572374373856
 20
-234.1253414081148
 30
0.0
 11
-673.4572374373856
 21
-154.7388510637829
 31
0.0
  0
INSERT
  5
577
330
571
100
AcDbEntity
  8
0
 62
     7
370
    -2
100
AcDbBlockReference
  2
_OPEN
 10
-673.4572374373856
 20
-274.1253414081148
 30
0.0
 41
40.0
 42
40.0
 43
40.0
 50
270.0
  0
INSERT
  5
578
330
571
100
AcDbEntity
  8
0
 62
     7
370
    -2
100
AcDbBlockReference
  2
_OPEN
 10
-673.4572374373856
 20
-114.7388510637829
 30
0.0
 41
40.0
 42
40.0
 43
40.0
 50
90.0
  0
MTEXT
  5
579
330
571
100
AcDbEntity
  8
0
 62
     7
370
    20
100
AcDbMText
 10
-715.4572374373856
 20
20.93230257191271
 30
0.0
 40
44.0
 41
0.0
 71
     5
 72
     1
  1
\A1;159.4
  7
MS　明朝
 11
0.0
 21
1.0
 31
0.0
 73
     1
 44
1.0
  0
POINT
  5
57A
330
571
100
AcDbEntity
  8
Defpoints
 62
     0
100
AcDbPoint
 10
-782.6551620619248
 20
-274.1253414081148
 30
0.0
  0
POINT
  5
57B
330
571
100
AcDbEntity
  8
Defpoints
 62
     0
100
AcDbPoint
 10
-736.505800962932
 20
-114.7388510637829
 30
0.0
  0
POINT
  5
57C
330
571
100
AcDbEntity
  8
Defpoints
 62
     0
100
AcDbPoint
 10
-673.4572374373856
 20
-114.7388510637829
 30
0.0
  0
ENDBLK
  5
57D
330
571
100
AcDbEntity
  8
0
370
    20
100
AcDbBlockEnd
  0
BLOCK
  5
583
330
582
100
AcDbEntity
  8
0
370
    20
100
AcDbBlockBegin
  2
*D9
 70
     1
 10
0.0
 20
0.0
 30
0.0
  3
*D9
  1

  0
LINE
  5
584
330
582
100
AcDbEntity
  8
0
 62
     7
370
    -2
100
AcDbLine
 10
-230.8499999999876
 20
326.329700700473
 30
0.0
 11
-230.8499999999876
 21
540.9119160517439
 31
0.0
  0
LINE
  5
585
330
582
100
AcDbEntity
  8
0
 62
     7
370
    -2
100
AcDbLine
 10
769.1500000000124
 20
326.329700700473
 30
0.0
 11
769.1500000000124
 21
540.9119160517439
 31
0.0
  0
LINE
  5
586
330
582
100
AcDbEntity
  8
0
 62
     7
370
    -2
100
AcDbLine
 10
-190.8499999999876
 20
510.9119160517439
 30
0.0
 11
729.1500000000124
 21
510.9119160517439
 31
0.0
  0
INSERT
  5
587
330
582
100
AcDbEntity
  8
0
 62
     7
370
    -2
100
AcDbBlockReference
  2
_OPEN
 10
-230.8499999999876
 20
510.9119160517439
 30
0.0
 41
40.0
 42
40.0
 43
40.0
 50
180.0
  0
INSERT
  5
588
330
582
100
AcDbEntity
  8
0
 62
     7
370
    -2
100
AcDbBlockReference
  2
_OPEN
 10
769.1500000000124
 20
510.9119160517439
 30
0.0
 41
40.0
 42
40.0
 43
40.0
  0
MTEXT
  5
589
330
582
100
AcDbEntity
  8
0
 62
     7
370
    20
100
AcDbMText
 10
269.1500000000124
 20
560.7061408379484
 30
0.0
 40
44.0
 41
0.0
 71
     5
 72
     1
  1
\A1;有効長1000%%p5
  7
MS　明朝
 73
     1
 44
1.0
  0
POINT
  5
58A
330
582
100
AcDbEntity
  8
Defpoints
 62
     0
100
AcDbPoint
 10
-230.8499999999876
 20
296.329700700473
 30
0.0
  0
POINT
  5
58B
330
582
100
AcDbEntity
  8
Defpoints
 62
     0
100
AcDbPoint
 10
769.1500000000124
 20
296.329700700473
 30
0.0
  0
POINT
  5
58C
330
582
100
AcDbEntity
  8
Defpoints
 62
     0
100
AcDbPoint
 10
769.1500000000124
 20
510.9119160517439
 30
0.0
  0
ENDBLK
  5
58D
330
582
100
AcDbEntity
  8
0
370
    20
100
AcDbBlockEnd
  0
BLOCK
  5
593
330
592
100
AcDbEntity
  8
0
370
    20
100
AcDbBlockBegin
  2
*D10
 70
     1
 10
0.0
 20
0.0
 30
0.0
  3
*D10
  1

  0
LINE
  5
594
330
592
100
AcDbEntity
  8
0
 62
     7
370
    -2
100
AcDbLine
 10
-203.5020276799223
 20
-901.2741866450233
 30
0.0
 11
-203.5020276799223
 21
-641.3994134801469
 31
0.0
  0
LINE
  5
595
330
592
100
AcDbEntity
  8
0
 62
     7
370
    -2
100
AcDbLine
 10
796.4979723200777
 20
-901.2741866450233
 30
0.0
 11
796.4979723200777
 21
-641.3994134801469
 31
0.0
  0
LINE
  5
596
330
592
100
AcDbEntity
  8
0
 62
     7
370
    -2
100
AcDbLine
 10
-163.5020276799223
 20
-671.3994134801469
 30
0.0
 11
756.4979723200777
 21
-671.3994134801469
 31
0.0
  0
INSERT
  5
597
330
592
100
AcDbEntity
  8
0
 62
     7
370
    -2
100
AcDbBlockReference
  2
_OPEN
 10
-203.5020276799223
 20
-671.3994134801469
 30
0.0
 41
40.0
 42
40.0
 43
40.0
 50
180.0
  0
INSERT
  5
598
330
592
100
AcDbEntity
  8
0
 62
     7
370
    -2
100
AcDbBlockReference
  2
_OPEN
 10
796.4979723200777
 20
-671.3994134801469
 30
0.0
 41
40.0
 42
40.0
 43
40.0
  0
MTEXT
  5
599
330
592
100
AcDbEntity
  8
0
 62
     7
370
    20
100
AcDbMText
 10
296.4979723200777
 20
-621.6051886939424
 30
0.0
 40
44.0
 41
0.0
 71
     5
 72
     1
  1
\A1;有効長1000%%p5
  7
MS　明朝
 73
     1
 44
1.0
  0
POINT
  5
59A
330
592
100
AcDbEntity
  8
Defpoints
 62
     0
100
AcDbPoint
 10
-203.5020276799223
 20
-931.2741866450233
 30
0.0
  0
POINT
  5
59B
330
592
100
AcDbEntity
  8
Defpoints
 62
     0
100
AcDbPoint
 10
796.4979723200777
 20
-931.2741866450233
 30
0.0
  0
POINT
  5
59C
330
592
100
AcDbEntity
  8
Defpoints
 62
     0
100
AcDbPoint
 10
796.4979723200777
 20
-671.3994134801469
 30
0.0
  0
ENDBLK
  5
59D
330
592
100
AcDbEntity
  8
0
370
    20
100
AcDbBlockEnd
  0
BLOCK
  5
5A0
330
59F
100
AcDbEntity
  8
0
370
    20
100
AcDbBlockBegin
  2
*D11
 70
     1
 10
0.0
 20
0.0
 30
0.0
  3
*D11
  1

  0
LINE
  5
5A1
330
59F
100
AcDbEntity
  8
0
 62
     7
370
    -2
100
AcDbLine
 10
796.4979723200777
 20
-901.2741866450233
 30
0.0
 11
796.4979723200777
 21
-641.3994134801469
 31
0.0
  0
LINE
  5
5A2
330
59F
100
AcDbEntity
  8
0
 62
     7
370
    -2
100
AcDbLine
 10
846.4979723200631
 20
-890.2100722805626
 30
0.0
 11
846.4979723200631
 21
-641.3994134801469
 31
0.0
  0
LINE
  5
5A3
330
59F
100
AcDbEntity
  8
0
 62
     7
370
    -2
100
AcDbLine
 10
886.4979723200631
 20
-671.3994134801469
 30
0.0
 11
1023.808792638059
 21
-671.3994134801469
 31
0.0
  0
LINE
  5
5A4
330
59F
100
AcDbEntity
  8
0
 62
     7
370
    -2
100
AcDbLine
 10
796.4979723200777
 20
-671.3994134801469
 30
0.0
 11
846.4979723200631
 21
-671.3994134801469
 31
0.0
  0
LINE
  5
5A5
330
59F
100
AcDbEntity
  8
0
 62
     7
370
    -2
100
AcDbLine
 10
756.4979723200777
 20
-671.3994134801469
 30
0.0
 11
716.4979723200777
 21
-671.3994134801469
 31
0.0
  0
INSERT
  5
5A6
330
59F
100
AcDbEntity
  8
0
 62
     7
370
    -2
100
AcDbBlockReference
  2
_OPEN
 10
796.4979723200777
 20
-671.3994134801469
 30
0.0
 41
40.0
 42
40.0
 43
40.0
  0
INSERT
  5
5A7
330
59F
100
AcDbEntity
  8
0
 62
     7
370
    -2
100
AcDbBlockReference
  2
_OPEN
 10
846.4979723200631
 20
-671.3994134801469
 30
0.0
 41
40.0
 42
40.0
 43
40.0
 50
180.0
  0
MTEXT
  5
5A8
330
59F
100
AcDbEntity
  8
0
 62
     7
370
    20
100
AcDbMText
 10
975.1533824790613
 20
-629.3994134801469
 30
0.0
 40
44.0
 41
0.0
 71
     5
 72
     1
  1
\A1;50
  7
MS　明朝
 73
     1
 44
1.0
  0
POINT
  5
5A9
330
59F
100
AcDbEntity
  8
Defpoints
 62
     0
100
AcDbPoint
 10
796.4979723200777
 20
-931.2741866450233
 30
0.0
  0
POINT
  5
5AA
330
59F
100
AcDbEntity
  8
Defpoints
 62
     0
100
AcDbPoint
 10
846.4979723200631
 20
-920.2100722805626
 30
0.0
  0
POINT
  5
5AB
330
59F
100
AcDbEntity
  8
Defpoints
 62
     0
100
AcDbPoint
 10
846.4979723200631
 20
-671.3994134801469
 30
0.0
  0
ENDBLK
  5
5AC
330
59F
100
AcDbEntity
  8
0
370
    20
100
AcDbBlockEnd
  0
BLOCK
  5
5AF
330
5AE
100
AcDbEntity
  8
0
370
    20
100
AcDbBlockBegin
  2
*D12
 70
     1
 10
0.0
 20
0.0
 30
0.0
  3
*D12
  1

  0
LINE
  5
5B0
330
5AE
100
AcDbEntity
  8
0
 62
     7
370
    -2
100
AcDbLine
 10
-253.5020276799223
 20
-1531.729228753611
 30
0.0
 11
-253.5020276799223
 21
-1689.282180732989
 31
0.0
  0
LINE
  5
5B1
330
5AE
100
AcDbEntity
  8
0
 62
     7
370
    -2
100
AcDbLine
 10
846.4979723200777
 20
-1531.729228753611
 30
0.0
 11
846.4979723200777
 21
-1689.282180732989
 31
0.0
  0
LINE
  5
5B2
330
5AE
100
AcDbEntity
  8
0
 62
     7
370
    -2
100
AcDbLine
 10
-213.5020276799223
 20
-1659.282180732989
 30
0.0
 11
806.4979723200777
 21
-1659.282180732989
 31
0.0
  0
INSERT
  5
5B3
330
5AE
100
AcDbEntity
  8
0
 62
     7
370
    -2
100
AcDbBlockReference
  2
_OPEN
 10
-253.5020276799223
 20
-1659.282180732989
 30
0.0
 41
40.0
 42
40.0
 43
40.0
 50
180.0
  0
INSERT
  5
5B4
330
5AE
100
AcDbEntity
  8
0
 62
     7
370
    -2
100
AcDbBlockReference
  2
_OPEN
 10
846.4979723200777
 20
-1659.282180732989
 30
0.0
 41
40.0
 42
40.0
 43
40.0
  0
MTEXT
  5
5B5
330
5AE
100
AcDbEntity
  8
0
 62
     7
370
    20
100
AcDbMText
 10
296.4979723200777
 20
-1616.402359586389
 30
0.0
 40
44.0
 41
0.0
 71
     5
 72
     1
  1
\A1;1100　%%p5
  7
MS　明朝
 73
     1
 44
1.0
  0
POINT
  5
5B6
330
5AE
100
AcDbEntity
  8
Defpoints
 62
     0
100
AcDbPoint
 10
-253.5020276799223
 20
-1501.729228753611
 30
0.0
  0
POINT
  5
5B7
330
5AE
100
AcDbEntity
  8
Defpoints
 62
     0
100
AcDbPoint
 10
846.4979723200777
 20
-1501.729228753611
 30
0.0
  0
POINT
  5
5B8
330
5AE
100
AcDbEntity
  8
Defpoints
 62
     0
100
AcDbPoint
 10
846.4979723200777
 20
-1659.282180732989
 30
0.0
  0
ENDBLK
  5
5B9
330
5AE
100
AcDbEntity
  8
0
370
    20
100
AcDbBlockEnd
  0
BLOCK
  5
5BC
330
5BB
100
AcDbEntity
  8
0
370
    20
100
AcDbBlockBegin
  2
*D13
 70
     1
 10
0.0
 20
0.0
 30
0.0
  3
*D13
  1

  0
LINE
  5
5BD
330
5BB
100
AcDbEntity
  8
0
 62
     7
370
    -2
100
AcDbLine
 10
769.1500000000124
 20
326.329700700473
 30
0.0
 11
769.1500000000124
 21
540.9119160517439
 31
0.0
  0
LINE
  5
5BE
330
5BB
100
AcDbEntity
  8
0
 62
     7
370
    -2
100
AcDbLine
 10
819.1499999999978
 20
337.3938150649337
 30
0.0
 11
819.1499999999978
 21
540.9119160517439
 31
0.0
  0
LINE
  5
5BF
330
5BB
100
AcDbEntity
  8
0
 62
     7
370
    -2
100
AcDbLine
 10
859.1499999999978
 20
510.9119160517439
 30
0.0
 11
996.4608203179941
 21
510.9119160517439
 31
0.0
  0
LINE
  5
5C0
330
5BB
100
AcDbEntity
  8
0
 62
     7
370
    -2
100
AcDbLine
 10
769.1500000000124
 20
510.9119160517439
 30
0.0
 11
819.1499999999978
 21
510.9119160517439
 31
0.0
  0
LINE
  5
5C1
330
5BB
100
AcDbEntity
  8
0
 62
     7
370
    -2
100
AcDbLine
 10
729.1500000000124
 20
510.9119160517439
 30
0.0
 11
689.1500000000124
 21
510.9119160517439
 31
0.0
  0
INSERT
  5
5C2
330
5BB
100
AcDbEntity
  8
0
 62
     7
370
    -2
100
AcDbBlockReference
  2
_OPEN
 10
769.1500000000124
 20
510.9119160517439
 30
0.0
 41
40.0
 42
40.0
 43
40.0
  0
INSERT
  5
5C3
330
5BB
100
AcDbEntity
  8
0
 62
     7
370
    -2
100
AcDbBlockReference
  2
_OPEN
 10
819.1499999999978
 20
510.9119160517439
 30
0.0
 41
40.0
 42
40.0
 43
40.0
 50
180.0
  0
MTEXT
  5
5C4
330
5BB
100
AcDbEntity
  8
0
 62
     7
370
    20
100
AcDbMText
 10
947.805410158996
 20
552.9119160517439
 30
0.0
 40
44.0
 41
0.0
 71
     5
 72
     1
  1
\A1;50
  7
MS　明朝
 73
     1
 44
1.0
  0
POINT
  5
5C5
330
5BB
100
AcDbEntity
  8
Defpoints
 62
     0
100
AcDbPoint
 10
769.1500000000124
 20
296.329700700473
 30
0.0
  0
POINT
  5
5C6
330
5BB
100
AcDbEntity
  8
Defpoints
 62
     0
100
AcDbPoint
 10
819.1499999999978
 20
307.3938150649337
 30
0.0
  0
POINT
  5
5C7
330
5BB
100
AcDbEntity
  8
Defpoints
 62
     0
100
AcDbPoint
 10
819.1499999999978
 20
510.9119160517439
 30
0.0
  0
ENDBLK
  5
5C8
330
5BB
100
AcDbEntity
  8
0
370
    20
100
AcDbBlockEnd
  0
BLOCK
  5
5CE
330
5CD
100
AcDbEntity
  8
0
370
    20
100
AcDbBlockBegin
  2
*D14
 70
     1
 10
0.0
 20
0.0
 30
0.0
  3
*D14
  1

  0
LINE
  5
5CF
330
5CD
100
AcDbEntity
  8
0
 62
     7
370
    -2
100
AcDbLine
 10
-280.8499999999949
 20
-304.1253414081148
 30
0.0
 11
-280.8499999999949
 21
-441.4368103646557
 31
0.0
  0
LINE
  5
5D0
330
5CD
100
AcDbEntity
  8
0
 62
     7
370
    -2
100
AcDbLine
 10
819.1500000000051
 20
-304.1253414081148
 30
0.0
 11
819.1500000000051
 21
-441.4368103646557
 31
0.0
  0
LINE
  5
5D1
330
5CD
100
AcDbEntity
  8
0
 62
     7
370
    -2
100
AcDbLine
 10
-240.8499999999949
 20
-411.4368103646557
 30
0.0
 11
779.1500000000051
 21
-411.4368103646557
 31
0.0
  0
INSERT
  5
5D2
330
5CD
100
AcDbEntity
  8
0
 62
     7
370
    -2
100
AcDbBlockReference
  2
_OPEN
 10
-280.8499999999949
 20
-411.4368103646557
 30
0.0
 41
40.0
 42
40.0
 43
40.0
 50
180.0
  0
INSERT
  5
5D3
330
5CD
100
AcDbEntity
  8
0
 62
     7
370
    -2
100
AcDbBlockReference
  2
_OPEN
 10
819.1500000000051
 20
-411.4368103646557
 30
0.0
 41
40.0
 42
40.0
 43
40.0
  0
MTEXT
  5
5D4
330
5CD
100
AcDbEntity
  8
0
 62
     7
370
    20
100
AcDbMText
 10
269.1500000000051
 20
-368.5569892180553
 30
0.0
 40
44.0
 41
0.0
 71
     5
 72
     1
  1
\A1;1100　%%p5
  7
MS　明朝
 73
     1
 44
1.0
  0
POINT
  5
5D5
330
5CD
100
AcDbEntity
  8
Defpoints
 62
     0
100
AcDbPoint
 10
-280.8499999999949
 20
-274.1253414081148
 30
0.0
  0
POINT
  5
5D6
330
5CD
100
AcDbEntity
  8
Defpoints
 62
     0
100
AcDbPoint
 10
819.1500000000051
 20
-274.1253414081148
 30
0.0
  0
POINT
  5
5D7
330
5CD
100
AcDbEntity
  8
Defpoints
 62
     0
100
AcDbPoint
 10
819.1500000000051
 20
-411.4368103646557
 30
0.0
  0
ENDBLK
  5
5D8
330
5CD
100
AcDbEntity
  8
0
370
    20
100
AcDbBlockEnd
  0
BLOCK
  5
5DB
330
5DA
100
AcDbEntity
  8
0
370
    20
100
AcDbBlockBegin
  2
*D15
 70
     1
 10
0.0
 20
0.0
 30
0.0
  3
*D15
  1

  0
LINE
  5
5DC
330
5DA
100
AcDbEntity
  8
0
 62
     7
370
    -2
100
AcDbLine
 10
-203.5020276799223
 20
-901.2741866450233
 30
0.0
 11
-203.5020276799223
 21
-641.3994134801469
 31
0.0
  0
LINE
  5
5DD
330
5DA
100
AcDbEntity
  8
0
 62
     7
370
    -2
100
AcDbLine
 10
-253.5020276799223
 20
-890.2100722805772
 30
0.0
 11
-253.5020276799223
 21
-641.3994134801469
 31
0.0
  0
LINE
  5
5DE
330
5DA
100
AcDbEntity
  8
0
 62
     7
370
    -2
100
AcDbLine
 10
-293.5020276799223
 20
-671.3994134801469
 30
0.0
 11
-430.8128479979187
 21
-671.3994134801469
 31
0.0
  0
LINE
  5
5DF
330
5DA
100
AcDbEntity
  8
0
 62
     7
370
    -2
100
AcDbLine
 10
-203.5020276799223
 20
-671.3994134801469
 30
0.0
 11
-253.5020276799223
 21
-671.3994134801469
 31
0.0
  0
LINE
  5
5E0
330
5DA
100
AcDbEntity
  8
0
 62
     7
370
    -2
100
AcDbLine
 10
-163.5020276799223
 20
-671.3994134801469
 30
0.0
 11
-123.5020276799223
 21
-671.3994134801469
 31
0.0
  0
INSERT
  5
5E1
330
5DA
100
AcDbEntity
  8
0
 62
     7
370
    -2
100
AcDbBlockReference
  2
_OPEN
 10
-203.5020276799223
 20
-671.3994134801469
 30
0.0
 41
40.0
 42
40.0
 43
40.0
 50
180.0
  0
INSERT
  5
5E2
330
5DA
100
AcDbEntity
  8
0
 62
     7
370
    -2
100
AcDbBlockReference
  2
_OPEN
 10
-253.5020276799223
 20
-671.3994134801469
 30
0.0
 41
40.0
 42
40.0
 43
40.0
  0
MTEXT
  5
5E3
330
5DA
100
AcDbEntity
  8
0
 62
     7
370
    20
100
AcDbMText
 10
-382.1574378389205
 20
-629.3994134801469
 30
0.0
 40
44.0
 41
0.0
 71
     5
 72
     1
  1
\A1;50
  7
MS　明朝
 73
     1
 44
1.0
  0
POINT
  5
5E4
330
5DA
100
AcDbEntity
  8
Defpoints
 62
     0
100
AcDbPoint
 10
-203.5020276799223
 20
-931.2741866450233
 30
0.0
  0
POINT
  5
5E5
330
5DA
100
AcDbEntity
  8
Defpoints
 62
     0
100
AcDbPoint
 10
-253.5020276799223
 20
-920.2100722805772
 30
0.0
  0
POINT
  5
5E6
330
5DA
100
AcDbEntity
  8
Defpoints
 62
     0
100
AcDbPoint
 10
-253.5020276799223
 20
-671.3994134801469
 30
0.0
  0
ENDBLK
  5
5E7
330
5DA
100
AcDbEntity
  8
0
370
    20
100
AcDbBlockEnd
  0
BLOCK
  5
62E
330
62D
100
AcDbEntity
  8
0
370
    20
100
AcDbBlockBegin
  2
*D16
 70
     1
 10
0.0
 20
0.0
 30
0.0
  3
*D16
  1

  0
LINE
  5
62F
330
62D
100
AcDbEntity
  8
0
 62
     7
370
    -2
100
AcDbLine
 10
121.4979723200922
 20
-1006.874383105169
 30
0.0
 11
121.4979723200922
 21
-738.834597728317
 31
0.0
  0
LINE
  5
630
330
62D
100
AcDbEntity
  8
0
 62
     7
370
    -2
100
AcDbLine
 10
471.4979723200995
 20
-1006.874383105169
 30
0.0
 11
471.4979723200995
 21
-738.834597728317
 31
0.0
  0
LINE
  5
631
330
62D
100
AcDbEntity
  8
0
 62
     7
370
    -2
100
AcDbLine
 10
161.4979723200922
 20
-768.834597728317
 30
0.0
 11
431.4979723200995
 21
-768.834597728317
 31
0.0
  0
INSERT
  5
632
330
62D
100
AcDbEntity
  8
0
 62
     7
370
    -2
100
AcDbBlockReference
  2
_OPEN
 10
121.4979723200922
 20
-768.834597728317
 30
0.0
 41
40.0
 42
40.0
 43
40.0
 50
180.0
  0
INSERT
  5
633
330
62D
100
AcDbEntity
  8
0
 62
     7
370
    -2
100
AcDbBlockReference
  2
_OPEN
 10
471.4979723200995
 20
-768.834597728317
 30
0.0
 41
40.0
 42
40.0
 43
40.0
  0
MTEXT
  5
634
330
62D
100
AcDbEntity
  8
0
 62
     7
370
    20
100
AcDbMText
 10
296.4979723200959
 20
-720.6118752168651
 30
0.0
 40
44.0
 41
0.0
 71
     5
 72
     1
  1
\A1;開口350
  7
MS　明朝
 73
     1
 44
1.0
  0
POINT
  5
635
330
62D
100
AcDbEntity
  8
Defpoints
 62
     0
100
AcDbPoint
 10
121.4979723200922
 20
-1036.874383105169
 30
0.0
  0
POINT
  5
636
330
62D
100
AcDbEntity
  8
Defpoints
 62
     0
100
AcDbPoint
 10
471.4979723200995
 20
-1036.874383105169
 30
0.0
  0
POINT
  5
637
330
62D
100
AcDbEntity
  8
Defpoints
 62
     0
100
AcDbPoint
 10
471.4979723200995
 20
-768.834597728317
 30
0.0
  0
ENDBLK
  5
638
330
62D
100
AcDbEntity
  8
0
370
    20
100
AcDbBlockEnd
  0
BLOCK
  5
63B
330
63A
100
AcDbEntity
  8
0
370
    20
100
AcDbBlockBegin
  2
*D17
 70
     1
 10
0.0
 20
0.0
 30
0.0
  3
*D17
  1

  0
LINE
  5
63C
330
63A
100
AcDbEntity
  8
0
 62
     7
370
    -2
100
AcDbLine
 10
296.4979723200777
 20
-883.7292287536111
 30
0.0
 11
296.4979723200777
 21
-840.7498962147656
 31
0.0
  0
LINE
  5
63D
330
63A
100
AcDbEntity
  8
0
 62
     7
370
    -2
100
AcDbLine
 10
373.3979723200719
 20
-883.7292287536111
 30
0.0
 11
373.3979723200719
 21
-840.7498962147656
 31
0.0
  0
LINE
  5
63E
330
63A
100
AcDbEntity
  8
0
 62
     7
370
    -2
100
AcDbLine
 10
413.3979723200719
 20
-870.7498962147656
 30
0.0
 11
614.6021059598323
 21
-870.7498962147656
 31
0.0
  0
LINE
  5
63F
330
63A
100
AcDbEntity
  8
0
 62
     7
370
    -2
100
AcDbLine
 10
296.4979723200777
 20
-870.7498962147656
 30
0.0
 11
373.3979723200719
 21
-870.7498962147656
 31
0.0
  0
LINE
  5
640
330
63A
100
AcDbEntity
  8
0
 62
     7
370
    -2
100
AcDbLine
 10
256.4979723200777
 20
-870.7498962147656
 30
0.0
 11
216.4979723200777
 21
-870.7498962147656
 31
0.0
  0
INSERT
  5
641
330
63A
100
AcDbEntity
  8
0
 62
     7
370
    -2
100
AcDbBlockReference
  2
_OPEN
 10
296.4979723200777
 20
-870.7498962147656
 30
0.0
 41
40.0
 42
40.0
 43
40.0
  0
INSERT
  5
642
330
63A
100
AcDbEntity
  8
0
 62
     7
370
    -2
100
AcDbBlockReference
  2
_OPEN
 10
373.3979723200719
 20
-870.7498962147656
 30
0.0
 41
40.0
 42
40.0
 43
40.0
 50
180.0
  0
MTEXT
  5
643
330
63A
100
AcDbEntity
  8
0
 62
     7
370
    20
100
AcDbMText
 10
534.0000391399522
 20
-828.7498962147656
 30
0.0
 40
44.0
 41
0.0
 71
     5
 72
     1
  1
\A1;76.9
  7
MS　明朝
 73
     1
 44
1.0
  0
POINT
  5
644
330
63A
100
AcDbEntity
  8
Defpoints
 62
     0
100
AcDbPoint
 10
296.4979723200777
 20
-913.7292287536111
 30
0.0
  0
POINT
  5
645
330
63A
100
AcDbEntity
  8
Defpoints
 62
     0
100
AcDbPoint
 10
373.3979723200719
 20
-913.7292287536111
 30
0.0
  0
POINT
  5
646
330
63A
100
AcDbEntity
  8
Defpoints
 62
     0
100
AcDbPoint
 10
373.3979723200719
 20
-870.7498962147656
 30
0.0
  0
ENDBLK
  5
647
330
63A
100
AcDbEntity
  8
0
370
    20
100
AcDbBlockEnd
  0
BLOCK
  5
714
330
713
100
AcDbEntity
  8
0
100
AcDbBlockBegin
  2
BLK42
 70
     0
 10
160.275329
 20
198.020739
 30
0.0
  3
BLK42
  1

  0
LINE
  5
715
330
713
100
AcDbEntity
  8
2
  6
Continuous
 62
     2
100
AcDbLine
 10
160.275329
 20
196.020739
 30
0.0
 11
158.275329
 21
196.020739
 31
0.0
  0
ARC
  5
716
330
713
100
AcDbEntity
  8
2
  6
Continuous
 62
     2
100
AcDbCircle
 10
159.575329
 20
199.420739
 30
0.0
 40
0.2
100
AcDbArc
 50
0.0
 51
90.0
  0
LINE
  5
717
330
713
100
AcDbEntity
  8
2
  6
Continuous
 62
     2
100
AcDbLine
 10
158.830884
 20
194.420739
 30
0.0
 11
159.495329
 21
194.181539
 31
0.0
  0
LINE
  5
718
330
713
100
AcDbEntity
  8
2
  6
Continuous
 62
     2
100
AcDbLine
 10
160.275329
 20
195.440739
 30
0.0
 11
160.275329
 21
194.940739
 31
0.0
  0
LINE
  5
719
330
713
100
AcDbEntity
  8
2
  6
Continuous
 62
     2
100
AcDbLine
 10
158.830884
 20
194.420739
 30
0.0
 11
159.495329
 21
194.659939
 31
0.0
  0
LINE
  5
71A
330
713
100
AcDbEntity
  8
2
  6
Continuous
 62
     2
100
AcDbLine
 10
159.775329
 20
201.920739
 30
0.0
 11
159.775329
 21
200.720739
 31
0.0
  0
LINE
  5
71B
330
713
100
AcDbEntity
  8
2
  6
Continuous
 62
     2
100
AcDbLine
 10
159.775329
 20
200.720739
 30
0.0
 11
159.475329
 21
200.720739
 31
0.0
  0
LINE
  5
71C
330
713
100
AcDbEntity
  8
2
  6
Continuous
 62
     2
100
AcDbLine
 10
159.975329
 20
194.832739
 30
0.0
 11
160.275329
 21
194.940739
 31
0.0
  0
LINE
  5
71D
330
713
100
AcDbEntity
  8
2
  6
Continuous
 62
     2
100
AcDbLine
 10
159.175329
 20
196.020739
 30
0.0
 11
160.275329
 21
196.820739
 31
0.0
  0
LINE
  5
71E
330
713
100
AcDbEntity
  8
2
  6
Continuous
 62
     2
100
AcDbLine
 10
158.275329
 20
196.020739
 30
0.0
 11
158.275329
 21
195.520739
 31
0.0
  0
LINE
  5
71F
330
713
100
AcDbEntity
  8
2
  6
Continuous
 62
     2
100
AcDbLine
 10
160.275329
 20
198.020739
 30
0.0
 11
158.275329
 21
198.020739
 31
0.0
  0
LINE
  5
720
330
713
100
AcDbEntity
  8
2
  6
Continuous
 62
     2
100
AcDbLine
 10
160.275329
 20
197.420739
 30
0.0
 11
159.175329
 21
196.620739
 31
0.0
  0
ARC
  5
721
330
713
100
AcDbEntity
  8
2
  6
Continuous
 62
     2
100
AcDbCircle
 10
158.875329
 20
198.720739
 30
0.0
 40
0.6
100
AcDbArc
 50
180.0
 51
270.0
  0
LINE
  5
722
330
713
100
AcDbEntity
  8
2
  6
Continuous
 62
     2
100
AcDbLine
 10
160.275329
 20
196.820739
 30
0.0
 11
160.275329
 21
197.420739
 31
0.0
  0
LINE
  5
723
330
713
100
AcDbEntity
  8
2
  6
Continuous
 62
     2
100
AcDbLine
 10
158.275329
 20
198.020739
 30
0.0
 11
158.275329
 21
197.520739
 31
0.0
  0
ARC
  5
724
330
713
100
AcDbEntity
  8
2
  6
Continuous
 62
     2
100
AcDbCircle
 10
159.575329
 20
198.820739
 30
0.0
 40
0.2
100
AcDbArc
 50
270.0
 51
0.0
  0
LINE
  5
725
330
713
100
AcDbEntity
  8
2
  6
Continuous
 62
     2
100
AcDbLine
 10
158.275329
 20
196.720739
 30
0.0
 11
159.175329
 21
196.020739
 31
0.0
  0
LINE
  5
726
330
713
100
AcDbEntity
  8
2
  6
Continuous
 62
     2
100
AcDbLine
 10
158.275329
 20
197.320739
 30
0.0
 11
158.275329
 21
196.720739
 31
0.0
  0
LINE
  5
727
330
713
100
AcDbEntity
  8
2
  6
Continuous
 62
     2
100
AcDbLine
 10
160.275329
 20
197.520739
 30
0.0
 11
160.275329
 21
198.020739
 31
0.0
  0
LINE
  5
728
330
713
100
AcDbEntity
  8
2
  6
Continuous
 62
     2
100
AcDbLine
 10
159.175329
 20
196.620739
 30
0.0
 11
158.275329
 21
197.320739
 31
0.0
  0
LINE
  5
729
330
713
100
AcDbEntity
  8
2
  6
Continuous
 62
     2
100
AcDbLine
 10
158.275329
 20
204.020739
 30
0.0
 11
160.275329
 21
204.020739
 31
0.0
  0
LINE
  5
72A
330
713
100
AcDbEntity
  8
2
  6
Continuous
 62
     2
100
AcDbLine
 10
158.275329
 20
201.920739
 30
0.0
 11
158.275329
 21
200.220739
 31
0.0
  0
LINE
  5
72B
330
713
100
AcDbEntity
  8
2
  6
Continuous
 62
     2
100
AcDbLine
 10
158.275329
 20
200.220739
 30
0.0
 11
160.275329
 21
200.220739
 31
0.0
  0
ARC
  5
72C
330
713
100
AcDbEntity
  8
2
  6
Continuous
 62
     2
100
AcDbCircle
 10
158.875329
 20
199.520739
 30
0.0
 40
0.6
100
AcDbArc
 50
90.0
 51
180.0
  0
ARC
  5
72D
330
713
100
AcDbEntity
  8
2
  6
Continuous
 62
     2
100
AcDbCircle
 10
158.975329
 20
199.420739
 30
0.0
 40
0.2
100
AcDbArc
 50
90.0
 51
180.0
  0
ARC
  5
72E
330
713
100
AcDbEntity
  8
2
  6
Continuous
 62
     2
100
AcDbCircle
 10
159.675329
 20
198.720739
 30
0.0
 40
0.6
100
AcDbArc
 50
270.0
 51
0.0
  0
ARC
  5
72F
330
713
100
AcDbEntity
  8
2
  6
Continuous
 62
     2
100
AcDbCircle
 10
159.675329
 20
199.520739
 30
0.0
 40
0.6
100
AcDbArc
 50
0.0
 51
90.0
  0
LINE
  5
730
330
713
100
AcDbEntity
  8
2
  6
Continuous
 62
     2
100
AcDbLine
 10
160.275329
 20
200.220739
 30
0.0
 11
160.275329
 21
201.920739
 31
0.0
  0
LINE
  5
731
330
713
100
AcDbEntity
  8
2
  6
Continuous
 62
     2
100
AcDbLine
 10
159.675329
 20
200.120739
 30
0.0
 11
159.175329
 21
200.120739
 31
0.0
  0
LINE
  5
732
330
713
100
AcDbEntity
  8
2
  6
Continuous
 62
     2
100
AcDbLine
 10
159.175329
 20
200.120739
 30
0.0
 11
159.175329
 21
199.120739
 31
0.0
  0
LINE
  5
733
330
713
100
AcDbEntity
  8
2
  6
Continuous
 62
     2
100
AcDbLine
 10
159.175329
 20
199.120739
 30
0.0
 11
159.575329
 21
199.120739
 31
0.0
  0
LINE
  5
734
330
713
100
AcDbEntity
  8
2
  6
Continuous
 62
     2
100
AcDbLine
 10
159.575329
 20
199.120739
 30
0.0
 11
159.575329
 21
199.620739
 31
0.0
  0
LINE
  5
735
330
713
100
AcDbEntity
  8
2
  6
Continuous
 62
     2
100
AcDbLine
 10
159.775329
 20
199.420739
 30
0.0
 11
159.775329
 21
198.820739
 31
0.0
  0
LINE
  5
736
330
713
100
AcDbEntity
  8
2
  6
Continuous
 62
     2
100
AcDbLine
 10
159.575329
 20
198.620739
 30
0.0
 11
158.975329
 21
198.620739
 31
0.0
  0
LINE
  5
737
330
713
100
AcDbEntity
  8
2
  6
Continuous
 62
     2
100
AcDbLine
 10
158.775329
 20
198.820739
 30
0.0
 11
158.775329
 21
199.420739
 31
0.0
  0
LINE
  5
738
330
713
100
AcDbEntity
  8
2
  6
Continuous
 62
     2
100
AcDbLine
 10
158.975329
 20
199.620739
 30
0.0
 11
159.075329
 21
199.620739
 31
0.0
  0
LINE
  5
739
330
713
100
AcDbEntity
  8
2
  6
Continuous
 62
     2
100
AcDbLine
 10
159.075329
 20
199.620739
 30
0.0
 11
159.075329
 21
200.120739
 31
0.0
  0
LINE
  5
73A
330
713
100
AcDbEntity
  8
2
  6
Continuous
 62
     2
100
AcDbLine
 10
159.075329
 20
200.120739
 30
0.0
 11
158.875329
 21
200.120739
 31
0.0
  0
LINE
  5
73B
330
713
100
AcDbEntity
  8
2
  6
Continuous
 62
     2
100
AcDbLine
 10
160.275329
 20
204.020739
 30
0.0
 11
160.275329
 21
203.420739
 31
0.0
  0
LINE
  5
73C
330
713
100
AcDbEntity
  8
2
  6
Continuous
 62
     2
100
AcDbLine
 10
158.275329
 20
204.020739
 30
0.0
 11
158.275329
 21
203.520739
 31
0.0
  0
LINE
  5
73D
330
713
100
AcDbEntity
  8
2
  6
Continuous
 62
     2
100
AcDbLine
 10
158.275329
 20
203.520739
 30
0.0
 11
159.575329
 21
203.520739
 31
0.0
  0
LINE
  5
73E
330
713
100
AcDbEntity
  8
2
  6
Continuous
 62
     2
100
AcDbLine
 10
158.275329
 20
202.620739
 30
0.0
 11
159.575329
 21
203.520739
 31
0.0
  0
LINE
  5
73F
330
713
100
AcDbEntity
  8
2
  6
Continuous
 62
     2
100
AcDbLine
 10
158.275329
 20
202.620739
 30
0.0
 11
158.275329
 21
202.020739
 31
0.0
  0
LINE
  5
740
330
713
100
AcDbEntity
  8
2
  6
Continuous
 62
     2
100
AcDbLine
 10
158.275329
 20
202.020739
 30
0.0
 11
160.275329
 21
202.020739
 31
0.0
  0
LINE
  5
741
330
713
100
AcDbEntity
  8
2
  6
Continuous
 62
     2
100
AcDbLine
 10
160.275329
 20
202.020739
 30
0.0
 11
160.275329
 21
202.520739
 31
0.0
  0
LINE
  5
742
330
713
100
AcDbEntity
  8
2
  6
Continuous
 62
     2
100
AcDbLine
 10
160.275329
 20
202.520739
 30
0.0
 11
158.975329
 21
202.520739
 31
0.0
  0
LINE
  5
743
330
713
100
AcDbEntity
  8
2
  6
Continuous
 62
     2
100
AcDbLine
 10
160.275329
 20
201.920739
 30
0.0
 11
159.775329
 21
201.920739
 31
0.0
  0
LINE
  5
744
330
713
100
AcDbEntity
  8
2
  6
Continuous
 62
     2
100
AcDbLine
 10
160.275329
 20
193.400739
 30
0.0
 11
160.275329
 21
193.900739
 31
0.0
  0
LINE
  5
745
330
713
100
AcDbEntity
  8
2
  6
Continuous
 62
     2
100
AcDbLine
 10
158.275329
 20
194.120739
 30
0.0
 11
160.275329
 21
193.400739
 31
0.0
  0
LINE
  5
746
330
713
100
AcDbEntity
  8
2
  6
Continuous
 62
     2
100
AcDbLine
 10
158.275329
 20
194.720739
 30
0.0
 11
160.275329
 21
195.440739
 31
0.0
  0
LINE
  5
747
330
713
100
AcDbEntity
  8
2
  6
Continuous
 62
     2
100
AcDbLine
 10
158.275329
 20
194.120739
 30
0.0
 11
158.275329
 21
194.720739
 31
0.0
  0
LINE
  5
748
330
713
100
AcDbEntity
  8
2
  6
Continuous
 62
     2
100
AcDbLine
 10
158.275329
 20
197.520739
 30
0.0
 11
160.275329
 21
197.520739
 31
0.0
  0
LINE
  5
749
330
713
100
AcDbEntity
  8
2
  6
Continuous
 62
     2
100
AcDbLine
 10
158.975329
 20
202.520739
 30
0.0
 11
160.275329
 21
203.420739
 31
0.0
  0
LINE
  5
74A
330
713
100
AcDbEntity
  8
2
  6
Continuous
 62
     2
100
AcDbLine
 10
159.495329
 20
194.181539
 30
0.0
 11
159.495329
 21
194.659939
 31
0.0
  0
LINE
  5
74B
330
713
100
AcDbEntity
  8
2
  6
Continuous
 62
     2
100
AcDbLine
 10
159.975329
 20
194.008739
 30
0.0
 11
160.275329
 21
193.900739
 31
0.0
  0
LINE
  5
74C
330
713
100
AcDbEntity
  8
2
  6
Continuous
 62
     2
100
AcDbLine
 10
159.975329
 20
194.832739
 30
0.0
 11
159.975329
 21
194.008739
 31
0.0
  0
LINE
  5
74D
330
713
100
AcDbEntity
  8
2
  6
Continuous
 62
     2
100
AcDbLine
 10
158.275329
 20
199.520739
 30
0.0
 11
158.275329
 21
198.720739
 31
0.0
  0
LINE
  5
74E
330
713
100
AcDbEntity
  8
2
  6
Continuous
 62
     2
100
AcDbLine
 10
158.715329
 20
193.920739
 30
0.0
 11
158.275329
 21
193.920739
 31
0.0
  0
LINE
  5
74F
330
713
100
AcDbEntity
  8
2
  6
Continuous
 62
     2
100
AcDbLine
 10
158.715329
 20
193.220739
 30
0.0
 11
158.715329
 21
193.920739
 31
0.0
  0
LINE
  5
750
330
713
100
AcDbEntity
  8
2
  6
Continuous
 62
     2
100
AcDbLine
 10
160.275329
 20
193.220739
 30
0.0
 11
158.715329
 21
193.220739
 31
0.0
  0
LINE
  5
751
330
713
100
AcDbEntity
  8
2
  6
Continuous
 62
     2
100
AcDbLine
 10
160.275329
 20
192.720739
 30
0.0
 11
160.275329
 21
193.220739
 31
0.0
  0
LINE
  5
752
330
713
100
AcDbEntity
  8
2
  6
Continuous
 62
     2
100
AcDbLine
 10
158.715329
 20
192.720739
 30
0.0
 11
160.275329
 21
192.720739
 31
0.0
  0
LINE
  5
753
330
713
100
AcDbEntity
  8
2
  6
Continuous
 62
     2
100
AcDbLine
 10
158.715329
 20
192.020739
 30
0.0
 11
158.715329
 21
192.720739
 31
0.0
  0
LINE
  5
754
330
713
100
AcDbEntity
  8
2
  6
Continuous
 62
     2
100
AcDbLine
 10
158.275329
 20
192.020739
 30
0.0
 11
158.715329
 21
192.020739
 31
0.0
  0
LINE
  5
755
330
713
100
AcDbEntity
  8
2
  6
Continuous
 62
     2
100
AcDbLine
 10
158.275329
 20
193.920739
 30
0.0
 11
158.275329
 21
192.020739
 31
0.0
  0
LINE
  5
756
330
713
100
AcDbEntity
  8
2
  6
Continuous
 62
     2
100
AcDbLine
 10
160.275329
 20
195.520739
 30
0.0
 11
160.275329
 21
196.020739
 31
0.0
  0
LINE
  5
757
330
713
100
AcDbEntity
  8
2
  6
Continuous
 62
     2
100
AcDbLine
 10
158.275329
 20
195.520739
 30
0.0
 11
160.275329
 21
195.520739
 31
0.0
  0
LINE
  5
758
330
713
100
AcDbEntity
  8
2
  6
Continuous
 62
     2
100
AcDbLine
 10
158.875329
 20
198.120739
 30
0.0
 11
159.675329
 21
198.120739
 31
0.0
  0
ARC
  5
759
330
713
100
AcDbEntity
  8
2
  6
Continuous
 62
     2
100
AcDbCircle
 10
158.975329
 20
198.820739
 30
0.0
 40
0.2
100
AcDbArc
 50
180.0
 51
270.0
  0
LINE
  5
75A
330
713
100
AcDbEntity
  8
2
  6
Continuous
 62
     2
100
AcDbLine
 10
160.275329
 20
198.720739
 30
0.0
 11
160.275329
 21
199.520739
 31
0.0
  0
LINE
  5
75B
330
713
100
AcDbEntity
  8
2
  6
Continuous
 62
     2
100
AcDbLine
 10
159.475329
 20
200.720739
 30
0.0
 11
159.475329
 21
201.820739
 31
0.0
  0
LINE
  5
75C
330
713
100
AcDbEntity
  8
2
  6
Continuous
 62
     2
100
AcDbLine
 10
159.475329
 20
201.820739
 30
0.0
 11
159.025329
 21
201.820739
 31
0.0
  0
LINE
  5
75D
330
713
100
AcDbEntity
  8
2
  6
Continuous
 62
     2
100
AcDbLine
 10
159.025329
 20
201.820739
 30
0.0
 11
159.025329
 21
200.720739
 31
0.0
  0
LINE
  5
75E
330
713
100
AcDbEntity
  8
2
  6
Continuous
 62
     2
100
AcDbLine
 10
159.025329
 20
200.720739
 30
0.0
 11
158.715329
 21
200.720739
 31
0.0
  0
LINE
  5
75F
330
713
100
AcDbEntity
  8
2
  6
Continuous
 62
     2
100
AcDbLine
 10
158.715329
 20
200.720739
 30
0.0
 11
158.715329
 21
201.920739
 31
0.0
  0
LINE
  5
760
330
713
100
AcDbEntity
  8
2
  6
Continuous
 62
     2
100
AcDbLine
 10
158.715329
 20
201.920739
 30
0.0
 11
158.275329
 21
201.920739
 31
0.0
  0
ENDBLK
  5
761
330
713
100
AcDbEntity
  8
0
100
AcDbBlockEnd
  0
BLOCK
  5
7B3
330
7B2
100
AcDbEntity
  8
0
370
    20
100
AcDbBlockBegin
  2
*D19
 70
     1
 10
0.0
 20
0.0
 30
0.0
  3
*D19
  1

  0
LINE
  5
7B4
330
7B2
100
AcDbEntity
  8
0
 62
     7
370
    -2
100
AcDbLine
 10
-230.8499999999876
 20
326.329700700473
 30
0.0
 11
-230.8499999999876
 21
540.9119160517439
 31
0.0
  0
LINE
  5
7B5
330
7B2
100
AcDbEntity
  8
0
 62
     7
370
    -2
100
AcDbLine
 10
-280.8499999999876
 20
337.3938150649192
 30
0.0
 11
-280.8499999999876
 21
540.9119160517439
 31
0.0
  0
LINE
  5
7B6
330
7B2
100
AcDbEntity
  8
0
 62
     7
370
    -2
100
AcDbLine
 10
-320.8499999999876
 20
510.9119160517439
 30
0.0
 11
-458.160820317984
 21
510.9119160517439
 31
0.0
  0
LINE
  5
7B7
330
7B2
100
AcDbEntity
  8
0
 62
     7
370
    -2
100
AcDbLine
 10
-230.8499999999876
 20
510.9119160517439
 30
0.0
 11
-280.8499999999876
 21
510.9119160517439
 31
0.0
  0
LINE
  5
7B8
330
7B2
100
AcDbEntity
  8
0
 62
     7
370
    -2
100
AcDbLine
 10
-190.8499999999876
 20
510.9119160517439
 30
0.0
 11
-150.8499999999876
 21
510.9119160517439
 31
0.0
  0
INSERT
  5
7B9
330
7B2
100
AcDbEntity
  8
0
 62
     7
370
    -2
100
AcDbBlockReference
  2
_OPEN
 10
-230.8499999999876
 20
510.9119160517439
 30
0.0
 41
40.0
 42
40.0
 43
40.0
 50
180.0
  0
INSERT
  5
7BA
330
7B2
100
AcDbEntity
  8
0
 62
     7
370
    -2
100
AcDbBlockReference
  2
_OPEN
 10
-280.8499999999876
 20
510.9119160517439
 30
0.0
 41
40.0
 42
40.0
 43
40.0
  0
MTEXT
  5
7BB
330
7B2
100
AcDbEntity
  8
0
 62
     7
370
    20
100
AcDbMText
 10
-409.5054101589858
 20
552.9119160517439
 30
0.0
 40
44.0
 41
0.0
 71
     5
 72
     1
  1
\A1;50
  7
MS　明朝
 73
     1
 44
1.0
  0
POINT
  5
7BC
330
7B2
100
AcDbEntity
  8
Defpoints
 62
     0
100
AcDbPoint
 10
-230.8499999999876
 20
296.329700700473
 30
0.0
  0
POINT
  5
7BD
330
7B2
100
AcDbEntity
  8
Defpoints
 62
     0
100
AcDbPoint
 10
-280.8499999999876
 20
307.3938150649192
 30
0.0
  0
POINT
  5
7BE
330
7B2
100
AcDbEntity
  8
Defpoints
 62
     0
100
AcDbPoint
 10
-280.8499999999876
 20
510.9119160517439
 30
0.0
  0
ENDBLK
  5
7BF
330
7B2
100
AcDbEntity
  8
0
370
    20
100
AcDbBlockEnd
  0
BLOCK
  5
808
330
807
100
AcDbEntity
  8
0
370
    20
100
AcDbBlockBegin
  2
*D20
 70
     1
 10
0.0
 20
0.0
 30
0.0
  3
*D20
  1

  0
LINE
  5
809
330
807
100
AcDbEntity
  8
0
 62
     7
370
    -2
100
AcDbLine
 10
269.1500000000124
 20
343.8746585918852
 30
0.0
 11
269.1500000000124
 21
403.0678996969218
 31
0.0
  0
LINE
  5
80A
330
807
100
AcDbEntity
  8
0
 62
     7
370
    -2
100
AcDbLine
 10
346.0500000000065
 20
343.8746585918852
 30
0.0
 11
346.0500000000065
 21
403.0678996969218
 31
0.0
  0
LINE
  5
80B
330
807
100
AcDbEntity
  8
0
 62
     7
370
    -2
100
AcDbLine
 10
386.0500000000065
 20
373.0678996969218
 30
0.0
 11
587.254133639767
 21
373.0678996969218
 31
0.0
  0
LINE
  5
80C
330
807
100
AcDbEntity
  8
0
 62
     7
370
    -2
100
AcDbLine
 10
269.1500000000124
 20
373.0678996969218
 30
0.0
 11
346.0500000000065
 21
373.0678996969218
 31
0.0
  0
LINE
  5
80D
330
807
100
AcDbEntity
  8
0
 62
     7
370
    -2
100
AcDbLine
 10
229.1500000000124
 20
373.0678996969218
 30
0.0
 11
189.1500000000124
 21
373.0678996969218
 31
0.0
  0
INSERT
  5
80E
330
807
100
AcDbEntity
  8
0
 62
     7
370
    -2
100
AcDbBlockReference
  2
_OPEN
 10
269.1500000000124
 20
373.0678996969218
 30
0.0
 41
40.0
 42
40.0
 43
40.0
  0
INSERT
  5
80F
330
807
100
AcDbEntity
  8
0
 62
     7
370
    -2
100
AcDbBlockReference
  2
_OPEN
 10
346.0500000000065
 20
373.0678996969218
 30
0.0
 41
40.0
 42
40.0
 43
40.0
 50
180.0
  0
MTEXT
  5
810
330
807
100
AcDbEntity
  8
0
 62
     7
370
    20
100
AcDbMText
 10
506.6520668198868
 20
415.0678996969218
 30
0.0
 40
44.0
 41
0.0
 71
     5
 72
     1
  1
\A1;76.9
  7
MS　明朝
 73
     1
 44
1.0
  0
POINT
  5
811
330
807
100
AcDbEntity
  8
Defpoints
 62
     0
100
AcDbPoint
 10
269.1500000000124
 20
313.8746585918852
 30
0.0
  0
POINT
  5
812
330
807
100
AcDbEntity
  8
Defpoints
 62
     0
100
AcDbPoint
 10
346.0500000000065
 20
313.8746585918852
 30
0.0
  0
POINT
  5
813
330
807
100
AcDbEntity
  8
Defpoints
 62
     0
100
AcDbPoint
 10
346.0500000000065
 20
373.0678996969218
 30
0.0
  0
ENDBLK
  5
814
330
807
100
AcDbEntity
  8
0
370
    20
100
AcDbBlockEnd
  0
BLOCK
  5
822
330
821
100
AcDbEntity
  8
0
370
    20
100
AcDbBlockBegin
  2
*D21
 70
     1
 10
0.0
 20
0.0
 30
0.0
  3
*D21
  1

  0
LINE
  5
823
330
821
100
AcDbEntity
  8
0
 62
     7
370
    -2
100
AcDbLine
 10
-1245.655162061932
 20
-931.7292287536111
 30
0.0
 11
-541.9668962851465
 21
-931.7292287536111
 31
0.0
  0
LINE
  5
824
330
821
100
AcDbEntity
  8
0
 62
     7
370
    -2
100
AcDbLine
 10
-613.4572374373856
 20
-1501.729228753611
 30
0.0
 11
-541.9668962851465
 21
-1501.729228753611
 31
0.0
  0
LINE
  5
825
330
821
100
AcDbEntity
  8
0
 62
     7
370
    -2
100
AcDbLine
 10
-571.9668962851465
 20
-971.7292287536111
 30
0.0
 11
-571.9668962851465
 21
-1461.729228753611
 31
0.0
  0
INSERT
  5
826
330
821
100
AcDbEntity
  8
0
 62
     7
370
    -2
100
AcDbBlockReference
  2
_OPEN
 10
-571.9668962851465
 20
-931.7292287536111
 30
0.0
 41
40.0
 42
40.0
 43
40.0
 50
90.0
  0
INSERT
  5
827
330
821
100
AcDbEntity
  8
0
 62
     7
370
    -2
100
AcDbBlockReference
  2
_OPEN
 10
-571.9668962851465
 20
-1501.729228753611
 30
0.0
 41
40.0
 42
40.0
 43
40.0
 50
270.0
  0
MTEXT
  5
828
330
821
100
AcDbEntity
  8
0
 62
     7
370
    20
100
AcDbMText
 10
-613.9668962851465
 20
-1216.729228753611
 30
0.0
 40
44.0
 41
0.0
 71
     5
 72
     1
  1
\A1;570
  7
MS　明朝
 11
0.0
 21
1.0
 31
0.0
 73
     1
 44
1.0
  0
POINT
  5
829
330
821
100
AcDbEntity
  8
Defpoints
 62
     0
100
AcDbPoint
 10
-1275.655162061932
 20
-931.7292287536111
 30
0.0
  0
POINT
  5
82A
330
821
100
AcDbEntity
  8
Defpoints
 62
     0
100
AcDbPoint
 10
-643.4572374373856
 20
-1501.729228753611
 30
0.0
  0
POINT
  5
82B
330
821
100
AcDbEntity
  8
Defpoints
 62
     0
100
AcDbPoint
 10
-571.9668962851465
 20
-1501.729228753611
 30
0.0
  0
ENDBLK
  5
82C
330
821
100
AcDbEntity
  8
0
370
    20
100
AcDbBlockEnd
  0
BLOCK
  5
82F
330
82E
100
AcDbEntity
  8
0
370
    20
100
AcDbBlockBegin
  2
*D22
 70
     1
 10
0.0
 20
0.0
 30
0.0
  3
*D22
  1

  0
LINE
  5
830
330
82E
100
AcDbEntity
  8
0
 62
     7
370
    -2
100
AcDbLine
 10
-1750.655162061925
 20
-1531.729228753597
 30
0.0
 11
-1750.655162061925
 21
-1702.95274485214
 31
0.0
  0
LINE
  5
831
330
82E
100
AcDbEntity
  8
0
 62
     7
370
    -2
100
AcDbLine
 10
-800.6551620619393
 20
-1531.729228753597
 30
0.0
 11
-800.6551620619393
 21
-1702.95274485214
 31
0.0
  0
LINE
  5
832
330
82E
100
AcDbEntity
  8
0
 62
     7
370
    -2
100
AcDbLine
 10
-1710.655162061925
 20
-1672.95274485214
 30
0.0
 11
-840.6551620619393
 21
-1672.95274485214
 31
0.0
  0
INSERT
  5
833
330
82E
100
AcDbEntity
  8
0
 62
     7
370
    -2
100
AcDbBlockReference
  2
_OPEN
 10
-1750.655162061925
 20
-1672.95274485214
 30
0.0
 41
40.0
 42
40.0
 43
40.0
 50
180.0
  0
INSERT
  5
834
330
82E
100
AcDbEntity
  8
0
 62
     7
370
    -2
100
AcDbBlockReference
  2
_OPEN
 10
-800.6551620619393
 20
-1672.95274485214
 30
0.0
 41
40.0
 42
40.0
 43
40.0
  0
MTEXT
  5
835
330
82E
100
AcDbEntity
  8
0
 62
     7
370
    20
100
AcDbMText
 10
-1275.655162061932
 20
-1630.95274485214
 30
0.0
 40
44.0
 41
0.0
 71
     5
 72
     1
  1
\A1;950
  7
MS　明朝
 73
     1
 44
1.0
  0
POINT
  5
836
330
82E
100
AcDbEntity
  8
Defpoints
 62
     0
100
AcDbPoint
 10
-1750.655162061925
 20
-1501.729228753597
 30
0.0
  0
POINT
  5
837
330
82E
100
AcDbEntity
  8
Defpoints
 62
     0
100
AcDbPoint
 10
-800.6551620619393
 20
-1501.729228753597
 30
0.0
  0
POINT
  5
838
330
82E
100
AcDbEntity
  8
Defpoints
 62
     0
100
AcDbPoint
 10
-800.6551620619393
 20
-1672.95274485214
 30
0.0
  0
ENDBLK
  5
839
330
82E
100
AcDbEntity
  8
0
370
    20
100
AcDbBlockEnd
  0
BLOCK
  5
83D
330
83C
100
AcDbEntity
  8
0
370
    20
100
AcDbBlockBegin
  2
*D23
 70
     1
 10
0.0
 20
0.0
 30
0.0
  3
*D23
  1

  0
LINE
  5
83E
330
83C
100
AcDbEntity
  8
0
 62
     7
370
    -2
100
AcDbLine
 10
-1361.427583934644
 20
-977.5953555772566
 30
0.0
 11
-1326.57006540259
 21
-1231.240496704341
 31
0.0
  0
MTEXT
  5
83F
330
83C
100
AcDbEntity
  8
0
 62
     7
370
    20
100
AcDbMText
 10
-1296.087784663984
 20
-1144.557902263952
 30
0.0
 40
44.0
 41
0.0
 71
     5
 72
     1
  1
\A1;R670
  7
MS　明朝
 11
0.1361467013853237
 21
-0.9906886875814699
 31
0.0
 73
     1
 44
1.0
  0
INSERT
  5
840
330
83C
100
AcDbEntity
  8
0
 62
     7
370
    -2
100
AcDbBlockReference
  2
_OPEN
 10
-1366.873451990057
 20
-937.9678080739977
 30
0.0
 41
40.0
 42
40.0
 43
40.0
 50
97.82493329317369
  0
POINT
  5
841
330
83C
100
AcDbEntity
  8
Defpoints
 62
     0
100
AcDbPoint
 10
-1366.873451990057
 20
-937.9678080739977
 30
0.0
  0
POINT
  5
842
330
83C
100
AcDbEntity
  8
Defpoints
 62
     0
100
AcDbPoint
 10
-1275.655162061888
 20
-1601.729228753597
 30
0.0
  0
ENDBLK
  5
843
330
83C
100
AcDbEntity
  8
0
370
    20
100
AcDbBlockEnd
  0
BLOCK
  5
847
330
846
100
AcDbEntity
  8
0
370
    20
100
AcDbBlockBegin
  2
*D24
 70
     1
 10
0.0
 20
0.0
 30
0.0
  3
*D24
  1

  0
LINE
  5
848
330
846
100
AcDbEntity
  8
0
 62
     7
370
    -2
100
AcDbLine
 10
-1592.938806670147
 20
-1076.074761447407
 30
0.0
 11
-1410.378776965949
 21
-1276.70691663096
 31
0.0
  0
MTEXT
  5
849
330
846
100
AcDbEntity
  8
0
 62
     7
370
    20
100
AcDbMText
 10
-1434.316203757574
 20
-1187.993663863747
 30
0.0
 40
44.0
 41
0.0
 71
     5
 72
     1
  1
\A1;R400
  7
MS　明朝
 11
0.6730101239114146
 21
-0.7396332693387598
 31
0.0
 73
     1
 44
1.0
  0
INSERT
  5
84A
330
846
100
AcDbEntity
  8
0
 62
     7
370
    -2
100
AcDbBlockReference
  2
_OPEN
 10
-1619.859211626604
 20
-1046.489430673857
 30
0.0
 41
40.0
 42
40.0
 43
40.0
 50
132.2998148892058
  0
POINT
  5
84B
330
846
100
AcDbEntity
  8
Defpoints
 62
     0
100
AcDbPoint
 10
-1619.859211626604
 20
-1046.489430673857
 30
0.0
  0
POINT
  5
84C
330
846
100
AcDbEntity
  8
Defpoints
 62
     0
100
AcDbPoint
 10
-1350.655162062019
 20
-1342.342738409381
 30
0.0
  0
ENDBLK
  5
84D
330
846
100
AcDbEntity
  8
0
370
    20
100
AcDbBlockEnd
  0
BLOCK
  5
853
330
852
100
AcDbEntity
  8
0
370
    20
100
AcDbBlockBegin
  2
*D25
 70
     1
 10
0.0
 20
0.0
 30
0.0
  3
*D25
  1

  0
LINE
  5
854
330
852
100
AcDbEntity
  8
0
 62
     7
370
    -2
100
AcDbLine
 10
-752.6551620619248
 20
-1501.729228753611
 30
0.0
 11
-643.4572374373856
 21
-1501.729228753611
 31
0.0
  0
LINE
  5
855
330
852
100
AcDbEntity
  8
0
 62
     7
370
    -2
100
AcDbLine
 10
-706.505800962932
 20
-1342.342738409279
 30
0.0
 11
-643.4572374373856
 21
-1342.342738409279
 31
0.0
  0
LINE
  5
856
330
852
100
AcDbEntity
  8
0
 62
     7
370
    -2
100
AcDbLine
 10
-673.4572374373856
 20
-1342.342738409279
 30
0.0
 11
-673.4572374373856
 21
-1111.000431137888
 31
0.0
  0
LINE
  5
857
330
852
100
AcDbEntity
  8
0
 62
     7
370
    -2
100
AcDbLine
 10
-673.4572374373856
 20
-1461.729228753611
 30
0.0
 11
-673.4572374373856
 21
-1382.342738409279
 31
0.0
  0
INSERT
  5
858
330
852
100
AcDbEntity
  8
0
 62
     7
370
    -2
100
AcDbBlockReference
  2
_OPEN
 10
-673.4572374373856
 20
-1501.729228753611
 30
0.0
 41
40.0
 42
40.0
 43
40.0
 50
270.0
  0
INSERT
  5
859
330
852
100
AcDbEntity
  8
0
 62
     7
370
    -2
100
AcDbBlockReference
  2
_OPEN
 10
-673.4572374373856
 20
-1342.342738409279
 30
0.0
 41
40.0
 42
40.0
 43
40.0
 50
90.0
  0
MTEXT
  5
85A
330
852
100
AcDbEntity
  8
0
 62
     7
370
    20
100
AcDbMText
 10
-715.4572374373856
 20
-1206.671584773584
 30
0.0
 40
44.0
 41
0.0
 71
     5
 72
     1
  1
\A1;159.4
  7
MS　明朝
 11
0.0
 21
1.0
 31
0.0
 73
     1
 44
1.0
  0
POINT
  5
85B
330
852
100
AcDbEntity
  8
Defpoints
 62
     0
100
AcDbPoint
 10
-782.6551620619248
 20
-1501.729228753611
 30
0.0
  0
POINT
  5
85C
330
852
100
AcDbEntity
  8
Defpoints
 62
     0
100
AcDbPoint
 10
-736.505800962932
 20
-1342.342738409279
 30
0.0
  0
POINT
  5
85D
330
852
100
AcDbEntity
  8
Defpoints
 62
     0
100
AcDbPoint
 10
-673.4572374373856
 20
-1342.342738409279
 30
0.0
  0
ENDBLK
  5
85E
330
852
100
AcDbEntity
  8
0
370
    20
100
AcDbBlockEnd
  0
BLOCK
  5
8F2
330
8F1
100
AcDbEntity
  8
0
370
    20
100
AcDbBlockBegin
  2
*D26
 70
     1
 10
0.0
 20
0.0
 30
0.0
  3
*D26
  1

  0
LINE
  5
8F3
330
8F1
100
AcDbEntity
  8
0
 62
     7
370
    -2
100
AcDbLine
 10
-917.5246144696365
 20
-1021.51026809102
 30
0.0
 11
-630.6310780669681
 21
-870.5962282108666
 31
0.0
  0
LINE
  5
8F4
330
8F1
100
AcDbEntity
  8
0
 62
     7
370
    -2
100
AcDbLine
 10
-756.1044670973064
 20
-1328.376328817143
 30
0.0
 11
-469.210930694638
 21
-1177.462288936989
 31
0.0
  0
LINE
  5
8F5
330
8F1
100
AcDbEntity
  8
0
 62
     7
370
    -2
100
AcDbLine
 10
-638.5598935754065
 20
-919.963564422507
 30
0.0
 11
-514.3835051154501
 21
-1156.027771909629
 31
0.0
  0
INSERT
  5
8F6
330
8F1
100
AcDbEntity
  8
0
 62
     7
370
    -2
100
AcDbBlockReference
  2
_OPEN
 10
-657.1817730315934
 20
-884.5626378030067
 30
0.0
 41
40.0
 42
40.0
 43
40.0
 50
117.7456278135627
  0
INSERT
  5
8F7
330
8F1
100
AcDbEntity
  8
0
 62
     7
370
    -2
100
AcDbBlockReference
  2
_OPEN
 10
-495.7616256592632
 20
-1191.428698529129
 30
0.0
 41
40.0
 42
40.0
 43
40.0
 50
297.7456278135627
  0
MTEXT
  5
8F8
330
8F1
100
AcDbEntity
  8
0
 62
     7
370
    20
100
AcDbMText
 10
-533.7934728199175
 20
-1015.545725024633
 30
0.0
 40
44.0
 41
0.0
 71
     5
 72
     1
  1
\A1;開口350
  7
MS　明朝
 11
0.4655469864046723
 21
-0.8850231654875075
 31
0.0
 73
     1
 44
1.0
  0
POINT
  5
8F9
330
8F1
100
AcDbEntity
  8
Defpoints
 62
     0
100
AcDbPoint
 10
-944.0753094342617
 20
-1035.47667768316
 30
0.0
  0
POINT
  5
8FA
330
8F1
100
AcDbEntity
  8
Defpoints
 62
     0
100
AcDbPoint
 10
-782.6551620619316
 20
-1342.342738409283
 30
0.0
  0
POINT
  5
8FB
330
8F1
100
AcDbEntity
  8
Defpoints
 62
     0
100
AcDbPoint
 10
-495.7616256592632
 20
-1191.428698529129
 30
0.0
  0
ENDBLK
  5
8FC
330
8F1
100
AcDbEntity
  8
0
370
    20
100
AcDbBlockEnd
  0
BLOCK
  5
90C
330
90B
100
AcDbEntity
  8
0
370
    20
100
AcDbBlockBegin
  2
*D27
 70
     1
 10
0.0
 20
0.0
 30
0.0
  3
*D27
  1

  0
ARC
  5
90D
330
90B
100
AcDbEntity
  8
0
 62
     7
370
    -2
100
AcDbCircle
 10
-1200.655162061925
 20
-1342.342738409279
 30
0.0
 40
225.7482918792391
100
AcDbArc
 50
339.6690386898093
 51
349.8345193449046
  0
ARC
  5
90E
330
90B
100
AcDbEntity
  8
0
 62
     7
370
    -2
100
AcDbCircle
 10
-1200.655162061925
 20
-1342.342738409279
 30
0.0
 40
225.7482918792391
100
AcDbArc
 50
60.2654806550957
 51
70.43096131019104
  0
ARC
  5
90F
330
90B
100
AcDbEntity
  8
0
 62
     7
370
    -2
100
AcDbCircle
 10
-1200.655162061925
 20
-1342.342738409279
 30
0.0
 40
225.7482918792391
100
AcDbArc
 50
0.0
 51
50.10000000000038
  0
INSERT
  5
910
330
90B
100
AcDbEntity
  8
0
 62
     7
370
    -2
100
AcDbBlockReference
  2
_OPEN
 10
-974.9068701826857
 20
-1342.342738409279
 30
0.0
 41
40.0
 42
40.0
 43
40.0
 50
84.91725967245235
  0
INSERT
  5
911
330
90B
100
AcDbEntity
  8
0
 62
     7
370
    -2
100
AcDbBlockReference
  2
_OPEN
 10
-1055.849003408621
 20
-1169.156515797697
 30
0.0
 41
40.0
 42
40.0
 43
40.0
 50
325.1827403275481
  0
MTEXT
  5
912
330
90B
100
AcDbEntity
  8
0
 62
     7
370
    20
100
AcDbMText
 10
-954.7890273772573
 20
-1227.432157594629
 30
0.0
 40
44.0
 41
0.0
 71
     5
 72
     1
  1
\A1;50.1%%d
  7
MS　明朝
 11
0.4234090034652351
 21
-0.9059386379797346
 31
0.0
 73
     1
 44
1.0
  0
POINT
  5
913
330
90B
100
AcDbEntity
  8
Defpoints
 62
     0
100
AcDbPoint
 10
-984.4283699270838
 20
-1277.471591899676
 30
0.0
  0
POINT
  5
914
330
90B
100
AcDbEntity
  8
Defpoints
 62
     0
100
AcDbPoint
 10
-1200.655162061925
 20
-1342.342738409279
 30
0.0
  0
POINT
  5
915
330
90B
100
AcDbEntity
  8
Defpoints
 62
     0
100
AcDbPoint
 10
-1877.658106547682
 20
-1342.342738409279
 30
0.0
  0
POINT
  5
916
330
90B
100
AcDbEntity
  8
Defpoints
 62
     0
100
AcDbPoint
 10
-672.4115995684006
 20
-1342.342738409279
 30
0.0
  0
POINT
  5
917
330
90B
100
AcDbEntity
  8
Defpoints
 62
     0
100
AcDbPoint
 10
-919.8291975312256
 20
-1006.478653203008
 30
0.0
  0
ENDBLK
  5
918
330
90B
100
AcDbEntity
  8
0
370
    20
100
AcDbBlockEnd
  0
BLOCK
  5
91B
330
91A
100
AcDbEntity
  8
0
370
    20
100
AcDbBlockBegin
  2
*D28
 70
     1
 10
0.0
 20
0.0
 30
0.0
  3
*D28
  1

  0
LINE
  5
91C
330
91A
100
AcDbEntity
  8
0
 62
     7
370
    -2
100
AcDbLine
 10
-1396.594112617516
 20
285.5516782299274
 30
0.0
 11
-1396.594112617516
 21
285.5516782299274
 31
0.0
  0
LINE
  5
91D
330
91A
100
AcDbEntity
  8
0
 62
     7
370
    -2
100
AcDbLine
 10
-1399.044753242449
 20
303.3840746063816
 30
0.0
 11
-1399.044753242449
 21
303.3840746063816
 31
0.0
  0
LINE
  5
91E
330
91A
100
AcDbEntity
  8
0
 62
     7
370
    -2
100
AcDbLine
 10
-1374.769960670416
 20
347.0960231511991
 30
0.0
 11
-1392.916400507441
 21
479.1408871361454
 31
0.0
  0
LINE
  5
91F
330
91A
100
AcDbEntity
  8
0
 62
     7
370
    -2
100
AcDbLine
 10
-1366.873451990072
 20
289.6360792714859
 30
0.0
 11
-1369.324092615005
 21
307.4684756479401
 31
0.0
  0
LINE
  5
920
330
91A
100
AcDbEntity
  8
0
 62
     7
370
    -2
100
AcDbLine
 10
-1361.427583934661
 20
250.0085317682268
 30
0.0
 11
-1355.981715879249
 21
210.3809842649678
 31
0.0
  0
INSERT
  5
921
330
91A
100
AcDbEntity
  8
0
 62
     7
370
    -2
100
AcDbBlockReference
  2
_OPEN
 10
-1366.873451990072
 20
289.6360792714859
 30
0.0
 41
40.0
 42
40.0
 43
40.0
 50
97.82493329317128
  0
INSERT
  5
922
330
91A
100
AcDbEntity
  8
0
 62
     7
370
    -2
100
AcDbBlockReference
  2
_OPEN
 10
-1369.324092615005
 20
307.4684756479401
 30
0.0
 41
40.0
 42
40.0
 43
40.0
 50
277.8249332931713
  0
MTEXT
  5
923
330
91A
100
AcDbEntity
  8
0
 62
     7
370
    20
100
AcDbMText
 10
-1344.957189738213
 20
438.6503903534835
 30
0.0
 40
44.0
 41
0.0
 71
     5
 72
     1
  1
\A1;18
  7
MS　明朝
 11
0.1361467013852825
 21
-0.9906886875814758
 31
0.0
 73
     1
 44
1.0
  0
POINT
  5
924
330
91A
100
AcDbEntity
  8
Defpoints
 62
     0
100
AcDbPoint
 10
-1366.873451990072
 20
289.6360792714859
 30
0.0
  0
POINT
  5
995
330
91A
100
AcDbEntity
  8
Defpoints
 62
     0
100
AcDbPoint
 10
-1369.324092615005
 20
307.4684756479401
 30
0.0
  0
POINT
  5
996
330
91A
100
AcDbEntity
  8
Defpoints
 62
     0
100
AcDbPoint
 10
-1369.324092615005
 20
307.4684756479401
 30
0.0
  0
ENDBLK
  5
925
330
91A
100
AcDbEntity
  8
0
370
    20
100
AcDbBlockEnd
  0
BLOCK
  5
928
330
927
100
AcDbEntity
  8
0
370
    20
100
AcDbBlockBegin
  2
*D29
 70
     1
 10
0.0
 20
0.0
 30
0.0
  3
*D29
  1

  0
LINE
  5
929
330
927
100
AcDbEntity
  8
0
 62
     7
370
    -2
100
AcDbLine
 10
-1337.15279136721
 20
-933.8834069989637
 30
0.0
 11
-1337.152773775567
 21
-933.883404581409
 31
0.0
  0
LINE
  5
92A
330
927
100
AcDbEntity
  8
0
 62
     7
370
    -2
100
AcDbLine
 10
-1339.603431992144
 20
-916.0510106224967
 30
0.0
 11
-1339.603414400502
 21
-916.051008204942
 31
0.0
  0
LINE
  5
92B
330
927
100
AcDbEntity
  8
0
 62
     7
370
    -2
100
AcDbLine
 10
-1374.769943078752
 20
-880.5078617767387
 30
0.0
 11
-1392.916382915771
 21
-748.4629977917916
 31
0.0
  0
LINE
  5
92C
330
927
100
AcDbEntity
  8
0
 62
     7
370
    -2
100
AcDbLine
 10
-1366.873434398408
 20
-937.9678056564649
 30
0.0
 11
-1369.324075023342
 21
-920.1354092799979
 31
0.0
  0
LINE
  5
92D
330
927
100
AcDbEntity
  8
0
 62
     7
370
    -2
100
AcDbLine
 10
-1361.427566342999
 20
-977.5953531597241
 30
0.0
 11
-1355.981698287589
 21
-1017.222900662983
 31
0.0
  0
INSERT
  5
92E
330
927
100
AcDbEntity
  8
0
 62
     7
370
    -2
100
AcDbBlockReference
  2
_OPEN
 10
-1366.873434398408
 20
-937.9678056564649
 30
0.0
 41
40.0
 42
40.0
 43
40.0
 50
97.82493329316864
  0
INSERT
  5
92F
330
927
100
AcDbEntity
  8
0
 62
     7
370
    -2
100
AcDbBlockReference
  2
_OPEN
 10
-1369.324075023342
 20
-920.1354092799979
 30
0.0
 41
40.0
 42
40.0
 43
40.0
 50
277.8249332931687
  0
MTEXT
  5
930
330
927
100
AcDbEntity
  8
0
 62
     7
370
    20
100
AcDbMText
 10
-1344.957172146544
 20
-788.9534945744556
 30
0.0
 40
44.0
 41
0.0
 71
     5
 72
     1
  1
\A1;18
  7
MS　明朝
 11
0.1361467013852366
 21
-0.9906886875814819
 31
0.0
 73
     1
 44
1.0
  0
POINT
  5
931
330
927
100
AcDbEntity
  8
Defpoints
 62
     0
100
AcDbPoint
 10
-1366.87345199005
 20
-937.9678080740196
 30
0.0
  0
POINT
  5
932
330
927
100
AcDbEntity
  8
Defpoints
 62
     0
100
AcDbPoint
 10
-1369.324092614985
 20
-920.1354116975526
 30
0.0
  0
POINT
  5
933
330
927
100
AcDbEntity
  8
Defpoints
 62
     0
100
AcDbPoint
 10
-1369.324075023342
 20
-920.1354092799979
 30
0.0
  0
ENDBLK
  5
934
330
927
100
AcDbEntity
  8
0
370
    20
100
AcDbBlockEnd
  0
BLOCK
  5
939
330
938
100
AcDbEntity
  8
0
370
    20
100
AcDbBlockBegin
  2
*D30
 70
     1
 10
0.0
 20
0.0
 30
0.0
  3
*D30
  1

  0
ARC
  5
93A
330
938
100
AcDbEntity
  8
0
 62
     7
370
    -2
100
AcDbCircle
 10
-1350.655162061932
 20
-1342.342738409279
 30
0.0
 40
287.2305151013086
100
AcDbArc
 50
114.1124260779365
 51
172.0144724663419
  0
INSERT
  5
93B
330
938
100
AcDbEntity
  8
0
 62
     7
370
    -2
100
AcDbBlockReference
  2
_OPEN
 10
-1430.437940816671
 20
-1066.415072127814
 30
0.0
 41
40.0
 42
40.0
 43
40.0
 50
20.11966231110743
  0
INSERT
  5
93C
330
938
100
AcDbEntity
  8
0
 62
     7
370
    -2
100
AcDbBlockReference
  2
_OPEN
 10
-1637.885677163241
 20
-1342.342738409279
 30
0.0
 41
40.0
 42
40.0
 43
40.0
 50
266.0072362331709
  0
MTEXT
  5
93D
330
938
100
AcDbEntity
  8
0
 62
     7
370
    20
100
AcDbMText
 10
-1616.723461098722
 20
-1142.307464336902
 30
0.0
 40
44.0
 41
0.0
 71
     5
 72
     1
  1
\A1;73.9%%d
  7
MS　明朝
 11
0.6009302463893204
 21
0.7993014693934141
 31
0.0
 73
     1
 44
1.0
  0
POINT
  5
93E
330
938
100
AcDbEntity
  8
Defpoints
 62
     0
100
AcDbPoint
 10
-1538.152488767359
 20
-1124.751099590869
 30
0.0
  0
POINT
  5
93F
330
938
100
AcDbEntity
  8
Defpoints
 62
     0
100
AcDbPoint
 10
-2378.224563083717
 20
-1342.342738409279
 30
0.0
  0
POINT
  5
940
330
938
100
AcDbEntity
  8
Defpoints
 62
     0
100
AcDbPoint
 10
-1480.286483915988
 20
-894.0145568836797
 30
0.0
  0
POINT
  5
941
330
938
100
AcDbEntity
  8
Defpoints
 62
     0
100
AcDbPoint
 10
-1350.655162061932
 20
-1342.342738409279
 30
0.0
  0
POINT
  5
942
330
938
100
AcDbEntity
  8
Defpoints
 62
     0
100
AcDbPoint
 10
-367.2280385784579
 20
-1342.342738409279
 30
0.0
  0
ENDBLK
  5
943
330
938
100
AcDbEntity
  8
0
370
    20
100
AcDbBlockEnd
  0
BLOCK
  5
94B
330
94A
100
AcDbEntity
  8
0
370
    20
100
AcDbBlockBegin
  2
*D31
 70
     1
 10
0.0
 20
0.0
 30
0.0
  3
*D31
  1

  0
ARC
  5
94C
330
94A
100
AcDbEntity
  8
0
 62
     7
370
    -2
100
AcDbCircle
 10
-1275.655162061932
 20
-1601.72922875361
 30
0.0
 40
550.2465562447192
100
AcDbArc
 50
78.03911774237379
 51
101.9608822576262
  0
INSERT
  5
94D
330
94A
100
AcDbEntity
  8
0
 62
     7
370
    -2
100
AcDbBlockReference
  2
_OPEN
 10
-1122.815554327548
 20
-1073.135502942594
 30
0.0
 41
40.0
 42
40.0
 43
40.0
 50
345.9561095990477
  0
INSERT
  5
94E
330
94A
100
AcDbEntity
  8
0
 62
     7
370
    -2
100
AcDbBlockReference
  2
_OPEN
 10
-1428.494769796317
 20
-1073.135502942594
 30
0.0
 41
40.0
 42
40.0
 43
40.0
 50
194.0438904009523
  0
MTEXT
  5
94F
330
94A
100
AcDbEntity
  8
0
 62
     7
370
    20
100
AcDbMText
 10
-1275.655162061932
 20
-1005.837158696218
 30
0.0
 40
44.0
 41
0.0
 71
     5
 72
     1
  1
\A1;32.3%%d
  7
MS　明朝
 73
     1
 44
1.0
  0
POINT
  5
950
330
94A
100
AcDbEntity
  8
Defpoints
 62
     0
100
AcDbPoint
 10
-1224.105365587333
 20
-1053.902713200922
 30
0.0
  0
POINT
  5
951
330
94A
100
AcDbEntity
  8
Defpoints
 62
     0
100
AcDbPoint
 10
-1480.286483915988
 20
-894.0145568836797
 30
0.0
  0
POINT
  5
952
330
94A
100
AcDbEntity
  8
Defpoints
 62
     0
100
AcDbPoint
 10
-1073.603729794467
 20
-902.937070288237
 30
0.0
  0
POINT
  5
953
330
94A
100
AcDbEntity
  8
Defpoints
 62
     0
100
AcDbPoint
 10
-1200.655162061932
 20
-1342.342738409279
 30
0.0
  0
POINT
  5
954
330
94A
100
AcDbEntity
  8
Defpoints
 62
     0
100
AcDbPoint
 10
-1350.655162061932
 20
-1342.342738409279
 30
0.0
  0
ENDBLK
  5
955
330
94A
100
AcDbEntity
  8
0
370
    20
100
AcDbBlockEnd
  0
BLOCK
  5
95B
330
95A
100
AcDbEntity
  8
0
370
    20
100
AcDbBlockBegin
  2
*D32
 70
     1
 10
0.0
 20
0.0
 30
0.0
  3
*D32
  1

  0
ARC
  5
95C
330
95A
100
AcDbEntity
  8
0
 62
     7
370
    -2
100
AcDbCircle
 10
-1200.655162061932
 20
-1342.342738409279
 30
0.0
 40
277.8542133981777
100
AcDbArc
 50
8.255461861781138
 51
65.61763959394048
  0
INSERT
  5
95D
330
95A
100
AcDbEntity
  8
0
 62
     7
370
    -2
100
AcDbBlockReference
  2
_OPEN
 10
-922.8009486637543
 20
-1342.342738409279
 30
0.0
 41
40.0
 42
40.0
 43
40.0
 50
274.1277309308906
  0
INSERT
  5
95E
330
95A
100
AcDbEntity
  8
0
 62
     7
370
    -2
100
AcDbBlockReference
  2
_OPEN
 10
-1123.476798106418
 20
-1075.422405650101
 30
0.0
 41
40.0
 42
40.0
 43
40.0
 50
159.7453705248311
  0
MTEXT
  5
95F
330
95A
100
AcDbEntity
  8
0
 62
     7
370
    20
100
AcDbMText
 10
-942.0813547539306
 20
-1147.941967629585
 30
0.0
 40
44.0
 41
0.0
 71
     5
 72
     1
  1
\A1;73.9%%d
  7
MS　明朝
 11
0.6009302463893209
 21
-0.7993014693934136
 31
0.0
 73
     1
 44
1.0
  0
POINT
  5
960
330
95A
100
AcDbEntity
  8
Defpoints
 62
     0
100
AcDbPoint
 10
-948.0692920174722
 20
-1226.569934361854
 30
0.0
  0
POINT
  5
961
330
95A
100
AcDbEntity
  8
Defpoints
 62
     0
100
AcDbPoint
 10
-1073.603729794467
 20
-902.937070288237
 30
0.0
  0
POINT
  5
962
330
95A
100
AcDbEntity
  8
Defpoints
 62
     0
100
AcDbPoint
 10
-1877.658106547682
 20
-1342.342738409279
 30
0.0
  0
POINT
  5
963
330
95A
100
AcDbEntity
  8
Defpoints
 62
     0
100
AcDbPoint
 10
-672.4115995684006
 20
-1342.342738409279
 30
0.0
  0
POINT
  5
964
330
95A
100
AcDbEntity
  8
Defpoints
 62
     0
100
AcDbPoint
 10
-1200.655162061932
 20
-1342.342738409279
 30
0.0
  0
ENDBLK
  5
965
330
95A
100
AcDbEntity
  8
0
370
    20
100
AcDbBlockEnd
  0
BLOCK
  5
96C
330
96B
100
AcDbEntity
  8
0
370
    20
100
AcDbBlockBegin
  2
*D33
 70
     1
 10
0.0
 20
0.0
 30
0.0
  3
*D33
  1

  0
ARC
  5
96D
330
96B
100
AcDbEntity
  8
0
 62
     7
370
    -2
100
AcDbCircle
 10
-1275.655162061932
 20
-374.1253414081139
 30
0.0
 40
552.8878802931602
100
AcDbArc
 50
78.0192066262515
 51
101.9807933737485
  0
INSERT
  5
96E
330
96B
100
AcDbEntity
  8
0
 62
     7
370
    -2
100
AcDbBlockReference
  2
_OPEN
 10
-1122.08188516255
 20
157.0057693333388
 30
0.0
 41
40.0
 42
40.0
 43
40.0
 50
345.9461540409866
  0
INSERT
  5
96F
330
96B
100
AcDbEntity
  8
0
 62
     7
370
    -2
100
AcDbBlockReference
  2
_OPEN
 10
-1429.228438961315
 20
157.0057693333388
 30
0.0
 41
40.0
 42
40.0
 43
40.0
 50
194.0538459590135
  0
MTEXT
  5
970
330
96B
100
AcDbEntity
  8
0
 62
     7
370
    20
100
AcDbMText
 10
-1275.655162061932
 20
224.4080526977192
 30
0.0
 40
44.0
 41
0.0
 71
     5
 72
     1
  1
\A1;32.25%%d
  7
MS　明朝
 73
     1
 44
1.0
  0
POINT
  5
971
330
96B
100
AcDbEntity
  8
Defpoints
 62
     0
100
AcDbPoint
 10
-1223.857913394175
 20
176.3308813794156
 30
0.0
  0
POINT
  5
972
330
96B
100
AcDbEntity
  8
Defpoints
 62
     0
100
AcDbPoint
 10
-1480.286483915988
 20
333.5893304618166
 30
0.0
  0
POINT
  5
973
330
96B
100
AcDbEntity
  8
Defpoints
 62
     0
100
AcDbPoint
 10
-1073.603729794467
 20
324.6668170572593
 30
0.0
  0
POINT
  5
974
330
96B
100
AcDbEntity
  8
Defpoints
 62
     0
100
AcDbPoint
 10
-1200.655162061932
 20
-114.7388510637829
 30
0.0
  0
POINT
  5
975
330
96B
100
AcDbEntity
  8
Defpoints
 62
     0
100
AcDbPoint
 10
-1350.655162061932
 20
-114.7388510637829
 30
0.0
  0
ENDBLK
  5
978
330
96B
100
AcDbEntity
  8
0
370
    20
100
AcDbBlockEnd
  0
BLOCK
  5
97B
330
97A
100
AcDbEntity
  8
0
370
    20
100
AcDbBlockBegin
  2
*D34
 70
     1
 10
0.0
 20
0.0
 30
0.0
  3
*D34
  1

  0
ARC
  5
97C
330
97A
100
AcDbEntity
  8
0
 62
     7
370
    -2
100
AcDbCircle
 10
-1350.655162061932
 20
-114.7388510637829
 30
0.0
 40
284.4137421875344
100
AcDbArc
 50
114.1916432248421
 51
171.9352553194363
  0
INSERT
  5
97D
330
97A
100
AcDbEntity
  8
0
 62
     7
370
    -2
100
AcDbBlockReference
  2
_OPEN
 10
-1429.655537978648
 20
158.4828855351467
 30
0.0
 41
40.0
 42
40.0
 43
40.0
 50
20.15927088456027
  0
INSERT
  5
97E
330
97A
100
AcDbEntity
  8
0
 62
     7
370
    -2
100
AcDbBlockReference
  2
_OPEN
 10
-1635.068904249466
 20
-114.7388510637829
 30
0.0
 41
40.0
 42
40.0
 43
40.0
 50
265.9676276597181
  0
MTEXT
  5
97F
330
97A
100
AcDbEntity
  8
0
 62
     7
370
    20
100
AcDbMText
 10
-1614.472010369795
 20
83.60373896749748
 30
0.0
 40
44.0
 41
0.0
 71
     5
 72
     1
  1
\A1;73.87%%d
  7
MS　明朝
 11
0.6009302463893207
 21
0.7993014693934137
 31
0.0
 73
     1
 44
1.0
  0
POINT
  5
980
330
97A
100
AcDbEntity
  8
Defpoints
 62
     0
100
AcDbPoint
 10
-1536.313765639064
 20
100.7189398441041
 30
0.0
  0
POINT
  5
981
330
97A
100
AcDbEntity
  8
Defpoints
 62
     0
100
AcDbPoint
 10
-1480.286483915988
 20
333.5893304618166
 30
0.0
  0
POINT
  5
982
330
97A
100
AcDbEntity
  8
Defpoints
 62
     0
100
AcDbPoint
 10
-1840.215098644654
 20
-114.7388510637829
 30
0.0
  0
POINT
  5
983
330
97A
100
AcDbEntity
  8
Defpoints
 62
     0
100
AcDbPoint
 10
-709.8342237254146
 20
-114.7388510637829
 30
0.0
  0
POINT
  5
984
330
97A
100
AcDbEntity
  8
Defpoints
 62
     0
100
AcDbPoint
 10
-1350.655162061932
 20
-114.7388510637829
 30
0.0
  0
ENDBLK
  5
985
330
97A
100
AcDbEntity
  8
0
370
    20
100
AcDbBlockEnd
  0
BLOCK
  5
988
330
987
100
AcDbEntity
  8
0
370
    20
100
AcDbBlockBegin
  2
*D35
 70
     1
 10
0.0
 20
0.0
 30
0.0
  3
*D35
  1

  0
ARC
  5
989
330
987
100
AcDbEntity
  8
0
 62
     7
370
    -2
100
AcDbCircle
 10
-1200.655162061932
 20
-114.7388510637829
 30
0.0
 40
288.3406881568248
100
AcDbArc
 50
7.954731973455432
 51
65.91836948226619
  0
INSERT
  5
98A
330
987
100
AcDbEntity
  8
0
 62
     7
370
    -2
100
AcDbBlockReference
  2
_OPEN
 10
-912.3144739051072
 20
-114.7388510637829
 30
0.0
 41
40.0
 42
40.0
 43
40.0
 50
273.9773659867277
  0
INSERT
  5
98B
330
987
100
AcDbEntity
  8
0
 62
     7
370
    -2
100
AcDbBlockReference
  2
_OPEN
 10
-1120.564015335788
 20
162.2553016955171
 30
0.0
 41
40.0
 42
40.0
 43
40.0
 50
159.8957354689939
  0
MTEXT
  5
98C
330
987
100
AcDbEntity
  8
0
 62
     7
370
    20
100
AcDbMText
 10
-933.6995000705871
 20
85.96355957638077
 30
0.0
 40
44.0
 41
0.0
 71
     5
 72
     1
  1
\A1;73.87%%d
  7
MS　明朝
 11
0.6009302463893207
 21
-0.7993014693934137
 31
0.0
 73
     1
 44
1.0
  0
POINT
  5
98D
330
987
100
AcDbEntity
  8
Defpoints
 62
     0
100
AcDbPoint
 10
-938.5364678856446
 20
5.403325585673656
 30
0.0
  0
POINT
  5
98E
330
987
100
AcDbEntity
  8
Defpoints
 62
     0
100
AcDbPoint
 10
-1073.603729794467
 20
324.6668170572593
 30
0.0
  0
POINT
  5
98F
330
987
100
AcDbEntity
  8
Defpoints
 62
     0
100
AcDbPoint
 10
-1840.215098644654
 20
-114.7388510637829
 30
0.0
  0
POINT
  5
990
330
987
100
AcDbEntity
  8
Defpoints
 62
     0
100
AcDbPoint
 10
-709.8342237254146
 20
-114.7388510637829
 30
0.0
  0
POINT
  5
991
330
987
100
AcDbEntity
  8
Defpoints
 62
     0
100
AcDbPoint
 10
-1200.655162061932
 20
-114.7388510637829
 30
0.0
  0
ENDBLK
  5
992
330
987
100
AcDbEntity
  8
0
370
    20
100
AcDbBlockEnd
  0
ENDSEC
  0
SECTION
  2
ENTITIES
  0
INSERT
  5
997
330
1F
100
AcDbEntity
  8
0
100
AcDbBlockReference
  2
A$C451
 10
968.9556063333621
 20
8.915557886301372
 30
0.0
  0
ENDSEC
  0
SECTION
  2
OBJECTS
  0
DICTIONARY
  5
C
330
0
100
AcDbDictionary
281
     1
  3
ACAD_DETAILVIEWSTYLE
350
B5
  3
ACAD_GROUP
350
D
  3
ACAD_IMAGE_VARS
350
6A
  3
ACAD_LAYOUT
350
1A
  3
ACAD_MLINESTYLE
350
17
  3
ACAD_PLOTSETTINGS
350
19
  3
ACAD_PLOTSTYLENAME
350
E
  3
ACAD_SCALELIST
350
40
  3
ACAD_SECTIONVIEWSTYLE
350
B6
  3
AcDbVariableDictionary
350
3D
  3
AcStStandard
350
19E
  3
APPDATA
350
71
  3
DWGPROPS
350
998
  0
DICTIONARY
  5
D0
330
2
100
AcDbDictionary
280
     1
281
     1
  3
ACAD_LAYERSTATES
360
D1
  3
ACLYDICTIONARY
360
3C5
  0
DICTIONARY
  5
3FD
330
1F
100
AcDbDictionary
280
     1
281
     1
  3
ACAD_SORTENTS
360
3FE
  3
DIM_BOUNDING_BOXES_V1
360
475
  0
DICTIONARY
  5
4D9
330
4BA
100
AcDbDictionary
280
     1
281
     1
  3
DIM_BOUNDING_BOXES_V1
360
4DA
  0
DICTIONARY
  5
B5
102
{ACAD_REACTORS
330
C
102
}
330
C
100
AcDbDictionary
281
     1
  0
DICTIONARY
  5
D
102
{ACAD_REACTORS
330
C
102
}
330
C
100
AcDbDictionary
281
     1
  0
RASTERVARIABLES
  5
6A
102
{ACAD_REACTORS
330
C
102
}
330
C
100
AcDbRasterVariables
 90
        0
 70
     1
 71
     1
 72
     1
  0
DICTIONARY
  5
1A
102
{ACAD_REACTORS
330
C
102
}
330
C
100
AcDbDictionary
281
     1
  3
Model
350
22
  3
Sheet1
350
1E
  3
Sheet2
350
26
  0
DICTIONARY
  5
17
102
{ACAD_REACTORS
330
C
102
}
330
C
100
AcDbDictionary
281
     1
  3
Standard
350
18
  0
DICTIONARY
  5
19
102
{ACAD_REACTORS
330
C
102
}
330
C
100
AcDbDictionary
281
     1
  0
ACDBDICTIONARYWDFLT
  5
E
102
{ACAD_REACTORS
330
C
102
}
330
C
100
AcDbDictionary
281
     1
  3
Normal
350
F
100
AcDbDictionaryWithDefault
340
F
  0
DICTIONARY
  5
40
102
{ACAD_REACTORS
330
C
102
}
330
C
100
AcDbDictionary
281
     1
  3
A0
350
41
  3
A1
350
42
  3
A2
350
43
  3
A3
350
44
  3
A4
350
45
  3
A5
350
46
  3
A6
350
47
  3
A7
350
48
  3
A8
350
49
  3
A9
350
4A
  3
B0
350
4B
  3
B1
350
4C
  3
B2
350
4D
  3
B3
350
4E
  3
B4
350
4F
  3
B5
350
50
  3
B6
350
51
  3
B7
350
52
  3
B8
350
53
  3
B9
350
54
  3
C0
350
55
  3
C1
350
56
  3
C2
350
57
  3
C3
350
58
  3
C4
350
59
  3
C5
350
5A
  3
C6
350
5B
  3
C7
350
5C
  3
C8
350
5D
  3
C9
350
5E
  3
D0
350
5F
  3
D1
350
60
  3
D2
350
61
  0
DICTIONARY
  5
B6
102
{ACAD_REACTORS
330
C
102
}
330
C
100
AcDbDictionary
281
     1
  0
DICTIONARY
  5
3D
102
{ACAD_REACTORS
330
C
102
}
330
C
100
AcDbDictionary
281
     1
  0
DICTIONARY
  5
19E
102
{ACAD_REACTORS
330
C
102
}
330
C
100
AcDbDictionary
281
     1
  0
DICTIONARY
  5
71
102
{ACAD_REACTORS
330
C
102
}
330
C
100
AcDbDictionary
281
     1
  0
XRECORD
  5
998
102
{ACAD_REACTORS
330
C
102
}
330
C
100
AcDbXrecord
280
     1
  1
DWGPROPS COOKIE
  2

  3

  4

  6

  7

  8
k_tak
  9

300
=
301
=
302
=
303
=
304
=
305
=
306
=
307
=
308
=
309
=
 40
0.0
 41
2455022.637359514
 42
2459653.008166192
  1

 90
        0
  0
DICTIONARY
  5
D1
102
{ACAD_REACTORS
330
D0
102
}
330
D0
100
AcDbDictionary
281
     1
  0
DICTIONARY
  5
3C5
102
{ACAD_REACTORS
330
D0
102
}
330
D0
100
AcDbDictionary
281
     1
1001
ACAD
1000
<All
  0
SORTENTSTABLE
  5
3FE
102
{ACAD_REACTORS
330
3FD
102
}
330
3FD
100
AcDbSortentsTable
330
1F
  0
DICTIONARY
  5
475
102
{ACAD_REACTORS
330
3FD
102
}
330
3FD
100
AcDbDictionary
281
     1
  0
DICTIONARY
  5
4DA
102
{ACAD_REACTORS
330
4D9
330
4D9
102
}
330
4D9
100
AcDbDictionary
281
     1
  0
LAYOUT
  5
22
102
{ACAD_REACTORS
330
1A
102
}
330
1A
100
AcDbPlotSettings
  1

  2
none_device
  4
ISO_A3_(420.00_x_297.00_MM)
  6

 40
7.5
 41
20.0
 42
7.5
 43
20.0
 44
420.0
 45
297.0
 46
20.78282828282826
 47
0.0
 48
0.0
 49
0.0
140
0.0
141
0.0
142
1.0
143
1.155642023346303
 70
  1204
 72
     1
 73
     0
 74
     1
  7
monochrome.ctb
 75
     0
147
0.8653198653198654
148
-134.1869158878504
149
0.0
100
AcDbLayout
  1
Model
 70
     1
 71
     0
 10
0.0
 20
0.0
 11
420.0
 21
297.0
 12
0.0
 22
0.0
 32
0.0
 14
-1409.268956750355
 24
-2130.645546587138
 34
0.0
 15
3182.382693985346
 25
839.3544534128764
 35
0.0
146
0.0
 13
0.0
 23
0.0
 33
0.0
 16
1.0
 26
0.0
 36
0.0
 17
0.0
 27
1.0
 37
0.0
 76
     0
330
1F
331
29
  0
LAYOUT
  5
1E
102
{ACAD_REACTORS
330
1A
102
}
330
1A
100
AcDbPlotSettings
  1

  2
none_device
  4

  6

 40
0.0
 41
0.0
 42
0.0
 43
0.0
 44
0.0
 45
0.0
 46
0.0
 47
0.0
 48
0.0
 49
0.0
140
0.0
141
0.0
142
1.0
143
1.0
 70
   688
 72
     0
 73
     0
 74
     5
  7

 75
    16
147
1.0
148
0.0
149
0.0
100
AcDbLayout
  1
Sheet1
 70
     1
 71
     1
 10
0.0
 20
0.0
 11
420.0
 21
297.0
 12
0.0
 22
0.0
 32
0.0
 14
1.000000000000000E+20
 24
1.000000000000000E+20
 34
1.000000000000000E+20
 15
-1.000000000000000E+20
 25
-1.000000000000000E+20
 35
-1.000000000000000E+20
146
0.0
 13
0.0
 23
0.0
 33
0.0
 16
1.0
 26
0.0
 36
0.0
 17
0.0
 27
1.0
 37
0.0
 76
     0
330
1B
  0
LAYOUT
  5
26
102
{ACAD_REACTORS
330
1A
102
}
330
1A
100
AcDbPlotSettings
  1

  2
none_device
  4

  6

 40
0.0
 41
0.0
 42
0.0
 43
0.0
 44
0.0
 45
0.0
 46
0.0
 47
0.0
 48
0.0
 49
0.0
140
0.0
141
0.0
142
1.0
143
1.0
 70
   688
 72
     0
 73
     0
 74
     5
  7

 75
    16
147
1.0
148
0.0
149
0.0
100
AcDbLayout
  1
Sheet2
 70
     1
 71
     2
 10
0.0
 20
0.0
 11
0.0
 21
0.0
 12
0.0
 22
0.0
 32
0.0
 14
0.0
 24
0.0
 34
0.0
 15
0.0
 25
0.0
 35
0.0
146
0.0
 13
0.0
 23
0.0
 33
0.0
 16
1.0
 26
0.0
 36
0.0
 17
0.0
 27
1.0
 37
0.0
 76
     0
330
23
  0
MLINESTYLE
  5
18
102
{ACAD_REACTORS
330
17
102
}
330
17
100
AcDbMlineStyle
  2
Standard
 70
     0
  3

 62
   256
 51
90.0
 52
90.0
 71
     2
 49
0.5
 62
   256
  6
BYLAYER
 49
-0.5
 62
   256
  6
BYLAYER
  0
ACDBPLACEHOLDER
  5
F
102
{ACAD_REACTORS
330
E
102
}
330
E
  0
SCALE
  5
41
102
{ACAD_REACTORS
330
40
102
}
330
40
100
AcDbScale
 70
     0
300
1:1
140
1.0
141
1.0
290
     1
  0
SCALE
  5
42
102
{ACAD_REACTORS
330
40
102
}
330
40
100
AcDbScale
 70
     0
300
1:2
140
1.0
141
2.0
290
     0
  0
SCALE
  5
43
102
{ACAD_REACTORS
330
40
102
}
330
40
100
AcDbScale
 70
     0
300
1:4
140
1.0
141
4.0
290
     0
  0
SCALE
  5
44
102
{ACAD_REACTORS
330
40
102
}
330
40
100
AcDbScale
 70
     0
300
1:5
140
1.0
141
5.0
290
     0
  0
SCALE
  5
45
102
{ACAD_REACTORS
330
40
102
}
330
40
100
AcDbScale
 70
     0
300
1:8
140
1.0
141
8.0
290
     0
  0
SCALE
  5
46
102
{ACAD_REACTORS
330
40
102
}
330
40
100
AcDbScale
 70
     0
300
1:10
140
1.0
141
10.0
290
     0
  0
SCALE
  5
47
102
{ACAD_REACTORS
330
40
102
}
330
40
100
AcDbScale
 70
     0
300
1:16
140
1.0
141
16.0
290
     0
  0
SCALE
  5
48
102
{ACAD_REACTORS
330
40
102
}
330
40
100
AcDbScale
 70
     0
300
1:20
140
1.0
141
20.0
290
     0
  0
SCALE
  5
49
102
{ACAD_REACTORS
330
40
102
}
330
40
100
AcDbScale
 70
     0
300
1:30
140
1.0
141
30.0
290
     0
  0
SCALE
  5
4A
102
{ACAD_REACTORS
330
40
102
}
330
40
100
AcDbScale
 70
     0
300
1:40
140
1.0
141
40.0
290
     0
  0
SCALE
  5
4B
102
{ACAD_REACTORS
330
40
102
}
330
40
100
AcDbScale
 70
     0
300
1:50
140
1.0
141
50.0
290
     0
  0
SCALE
  5
4C
102
{ACAD_REACTORS
330
40
102
}
330
40
100
AcDbScale
 70
     0
300
1:100
140
1.0
141
100.0
290
     0
  0
SCALE
  5
4D
102
{ACAD_REACTORS
330
40
102
}
330
40
100
AcDbScale
 70
     0
300
2:1
140
2.0
141
1.0
290
     0
  0
SCALE
  5
4E
102
{ACAD_REACTORS
330
40
102
}
330
40
100
AcDbScale
 70
     0
300
4:1
140
4.0
141
1.0
290
     0
  0
SCALE
  5
4F
102
{ACAD_REACTORS
330
40
102
}
330
40
100
AcDbScale
 70
     0
300
8:1
140
8.0
141
1.0
290
     0
  0
SCALE
  5
50
102
{ACAD_REACTORS
330
40
102
}
330
40
100
AcDbScale
 70
     0
300
10:1
140
10.0
141
1.0
290
     0
  0
SCALE
  5
51
102
{ACAD_REACTORS
330
40
102
}
330
40
100
AcDbScale
 70
     0
300
100:1
140
100.0
141
1.0
290
     0
  0
SCALE
  5
52
102
{ACAD_REACTORS
330
40
102
}
330
40
100
AcDbScale
 70
     0
300
1/128" = 1'-0"
140
0.0078125
141
12.0
290
     0
  0
SCALE
  5
53
102
{ACAD_REACTORS
330
40
102
}
330
40
100
AcDbScale
 70
     0
300
1/64" = 1'-0"
140
0.015625
141
12.0
290
     0
  0
SCALE
  5
54
102
{ACAD_REACTORS
330
40
102
}
330
40
100
AcDbScale
 70
     0
300
1/32" = 1'-0"
140
0.03125
141
12.0
290
     0
  0
SCALE
  5
55
102
{ACAD_REACTORS
330
40
102
}
330
40
100
AcDbScale
 70
     0
300
1/16" = 1'-0"
140
0.0625
141
12.0
290
     0
  0
SCALE
  5
56
102
{ACAD_REACTORS
330
40
102
}
330
40
100
AcDbScale
 70
     0
300
3/32" = 1'-0"
140
0.09375
141
12.0
290
     0
  0
SCALE
  5
57
102
{ACAD_REACTORS
330
40
102
}
330
40
100
AcDbScale
 70
     0
300
1/8" = 1'-0"
140
0.125
141
12.0
290
     0
  0
SCALE
  5
58
102
{ACAD_REACTORS
330
40
102
}
330
40
100
AcDbScale
 70
     0
300
3/16" = 1'-0"
140
0.1875
141
12.0
290
     0
  0
SCALE
  5
59
102
{ACAD_REACTORS
330
40
102
}
330
40
100
AcDbScale
 70
     0
300
1/4" = 1'-0"
140
0.25
141
12.0
290
     0
  0
SCALE
  5
5A
102
{ACAD_REACTORS
330
40
102
}
330
40
100
AcDbScale
 70
     0
300
3/8" = 1'-0"
140
0.375
141
12.0
290
     0
  0
SCALE
  5
5B
102
{ACAD_REACTORS
330
40
102
}
330
40
100
AcDbScale
 70
     0
300
1/2" = 1'-0"
140
0.5
141
12.0
290
     0
  0
SCALE
  5
5C
102
{ACAD_REACTORS
330
40
102
}
330
40
100
AcDbScale
 70
     0
300
3/4" = 1'-0"
140
0.75
141
12.0
290
     0
  0
SCALE
  5
5D
102
{ACAD_REACTORS
330
40
102
}
330
40
100
AcDbScale
 70
     0
300
1" = 1'-0"
140
1.0
141
12.0
290
     0
  0
SCALE
  5
5E
102
{ACAD_REACTORS
330
40
102
}
330
40
100
AcDbScale
 70
     0
300
1-1/2" = 1'-0"
140
1.5
141
12.0
290
     0
  0
SCALE
  5
5F
102
{ACAD_REACTORS
330
40
102
}
330
40
100
AcDbScale
 70
     0
300
3" = 1'-0"
140
3.0
141
12.0
290
     0
  0
SCALE
  5
60
102
{ACAD_REACTORS
330
40
102
}
330
40
100
AcDbScale
 70
     0
300
6" = 1'-0"
140
6.0
141
12.0
290
     0
  0
SCALE
  5
61
102
{ACAD_REACTORS
330
40
102
}
330
40
100
AcDbScale
 70
     0
300
1'-0" = 1'-0"
140
12.0
141
12.0
290
     0
  0
ENDSEC
  0
EOF
